Loading...
Error

Скачать Табу / Taboo (сезон 01) (Андерс Энгстрем, Кристоффер Нюхольм) [2017, драма, приключения, BDRip] 3x[MVO (AlexFilm, LostFilm, NewStudio)]+[DVO (Кубик в Кубе)]+[Eng]+[Sub Rus, Eng] торрент без регистрации

Статистика раздачи
Размер:  7,54 GB   |    Скачан:  50 раз
Сидов:  11  [  0 KB/s  ]   Личеров:  3  [  0 KB/s  ]  

 
 
 
Автор Сообщение

МихаНЕзатор

[] 

Информация о фильме
Название: Табу
Оригинальное название: Taboo
Год выхода: 2017
Жанр: Драма, приключения
Режиссер: Андерс Энгстрем, Кристоффер Нюхольм

В ролях: Том Харди, Лео Билл, Уна Чаплин, Ричард Диксон, Дэвид Хейман, Майкл Келли, Дэнни Лигаири, Джонатан Прайс, Рой Торн, Скрубиус Пип

О фильме: «Табу» ломает рамки жанра романтической, мистической драмы. Создатели сериала издеваются над вашим воображением, закосневшим в предсказуемости голливудских штамповок. Если вы привыкли к понятным сюжетам и героям - вам не сюда. Благородный герой не бьется с честью за восстановление справедливости. Джеймс Кезайа Делейни совсем не благороден и понятия о чести и справедливости у него свои личные. Ради своей мести он идет по головам непричастных и трупам невинных. Если вам интересна Англия начала XIX века, вы любите Эдварда Томаса Харди, или, на худой конец, почитаете его актерский талант и скучаете по первым двум сезонам «Острых козырьков» - смотреть «Табу» нужно обязательно. Другой такой коктейль из истории, мистики и тайн, а также напряженного сюжета найти непросто.


Интересно
Официальный сайт

Страна: Великобритания, США
Студия: Hardy, Son & Baker, Scott Free Productions
Продолжительность: 8 x ~ 00:55:00
Перевод: Профессиональный (многоголосый, закадровый)- AlexFilm, LostFilm, NewStudio
Перевод: Профессиональный (двухголосый, закадровый)- Кубик в Кубе

Файл
Формат: MKV
Кодек: H.264
Качество: BDRip
Видео: 720x400 [16:9] at 25 fps, x264 H@3.1, 975 kbps
Звук:
Аудио#1: Русский AAC-HE, 48 kHz, 3/2 (L,C,R,l,r) + LFE ch, 16-bit, ~275 kbps [MVO AlexFilm]
Аудио#2: Русский AAC-HE, 48 kHz, 3/2 (L,C,R,l,r) + LFE ch, 16-bit, ~275 kbps [MVO LostFilm]
Аудио#3: Русский AAC-HE, 48 kHz, 3/2 (L,C,R,l,r) + LFE ch, 16-bit, ~275 kbps [MVO NewStudio]
Аудио#4: Русский AAC-HE, 48 kHz, 3/2 (L,C,R,l,r) + LFE ch, 16-bit, ~275 kbps [DVO Кубик в Кубе] {1-2 эпизод одноголосый}
Аудио#5: Английский AAC-HE, 48 kHz, 3/2 (L,C,R,l,r) + LFE ch, 16-bit, ~275 kbps [Original]
Субтитры: Русские, английские

АНОНСЫ ПОПУЛЯРНЫХ РАЗДАЧ


Торрент обновлён, добавлена 8-я серия!

General
Unique ID : 250863824587095254911421371602730877910 (0xBCBA9D7C0404BCE5BF7AB50BC1D203D6)
Complete name : Taboo_s01e01_SD.mkv
Format : Matroska
Format version : Version 4 / Version 2
File size : 931 MiB
Duration : 55 min 5 s
Overall bit rate : 2 362 kb/s
Movie name : Taboo_s01e01_SD
Encoded date : UTC 2017-02-22 08:19:54
Writing application : mkvmerge v9.9.0 ('Pick Up') 64bit
Writing library : libebml v1.3.4 + libmatroska v1.4.5
Cover : Yes
Attachments : Cover.jpg

Video
ID : 1
Format : AVC
Format/Info : Advanced Video Codec
Format profile : High@L3.1
Format settings, CABAC : Yes
Format settings, ReFrames : 16 frames
Codec ID : V_MPEG4/ISO/AVC
Duration : 55 min 4 s
Bit rate : 975 kb/s
Width : 720 pixels
Height : 400 pixels
Display aspect ratio : 16:9
Frame rate mode : Constant
Frame rate : 25.000 FPS
Color space : YUV
Chroma subsampling : 4:2:0
Bit depth : 8 bits
Scan type : Progressive
Bits/(Pixel*Frame) : 0.135
Stream size : 384 MiB (41%)
Title : Taboo s01e01
Writing library : x264 core 148 r2721kMod 72d53ab
Encoding settings : cabac=1 / ref=16 / deblock=1:0:0 / analyse=0x3:0x133 / me=umh / subme=10 / psy=1 / fade_compensate=0.00 / psy_rd=1.00:0.00 / mixed_ref=1 / me_range=24 / chroma_me=1 / trellis=2 / 8x8dct=1 / cqm=0 / deadzone=21,11 / fast_pskip=1 / chroma_qp_offset=-2 / threads=5 / lookahead_threads=1 / sliced_threads=0 / slices=4 / nr=0 / decimate=1 / interlaced=0 / bluray_compat=0 / constrained_intra=0 / fgo=0 / bframes=8 / b_pyramid=2 / b_adapt=2 / b_bias=0 / direct=3 / weightb=1 / open_gop=0 / weightp=2 / keyint=250 / keyint_min=25 / scenecut=40 / intra_refresh=0 / rc_lookahead=60 / rc=2pass / mbtree=1 / bitrate=975 / ratetol=1.0 / qcomp=0.60 / qpmin=0 / qpmax=69 / qpstep=4 / cplxblur=20.0 / qblur=0.5 / ip_ratio=1.40 / aq=1:1.00
Language : English
Default : Yes
Forced : No

Audio #1
ID : 2
Format : AAC
Format/Info : Advanced Audio Codec
Format profile : HE-AAC / LC
Codec ID : A_AAC
Duration : 55 min 5 s
Bit rate : 280 kb/s
Channel(s) : 6 channels
Channel positions : Front: L C R, Side: L R, LFE
Sampling rate : 48.0 kHz / 24.0 kHz
Frame rate : 23.438 FPS (1024 spf)
Compression mode : Lossy
Delay relative to video : 43 ms
Stream size : 110 MiB (12%)
Title : AlexFilm
Language : Russian
Default : Yes
Forced : No

Audio #2
ID : 3
Format : AAC
Format/Info : Advanced Audio Codec
Format profile : HE-AAC / LC
Codec ID : A_AAC
Duration : 55 min 4 s
Bit rate : 280 kb/s
Channel(s) : 6 channels
Channel positions : Front: L C R, Side: L R, LFE
Sampling rate : 48.0 kHz / 24.0 kHz
Frame rate : 23.438 FPS (1024 spf)
Compression mode : Lossy
Delay relative to video : 43 ms
Stream size : 110 MiB (12%)
Title : LostFilm
Language : Russian
Default : No
Forced : No

Audio #3
ID : 4
Format : AAC
Format/Info : Advanced Audio Codec
Format profile : HE-AAC / LC
Codec ID : A_AAC
Duration : 55 min 4 s
Bit rate : 270 kb/s
Channel(s) : 6 channels
Channel positions : Front: L C R, Side: L R, LFE
Sampling rate : 48.0 kHz / 24.0 kHz
Frame rate : 23.438 FPS (1024 spf)
Compression mode : Lossy
Delay relative to video : 43 ms
Stream size : 106 MiB (11%)
Title : NewStudio
Language : Russian
Default : No
Forced : No

Audio #4
ID : 5
Format : AAC
Format/Info : Advanced Audio Codec
Format profile : HE-AAC / LC
Codec ID : A_AAC
Duration : 55 min 4 s
Bit rate : 274 kb/s
Channel(s) : 6 channels
Channel positions : Front: L C R, Side: L R, LFE
Sampling rate : 48.0 kHz / 24.0 kHz
Frame rate : 23.438 FPS (1024 spf)
Compression mode : Lossy
Delay relative to video : 43 ms
Stream size : 108 MiB (12%)
Title : KvK
Language : Russian
Default : No
Forced : No

Audio #5
ID : 6
Format : AAC
Format/Info : Advanced Audio Codec
Format profile : HE-AAC / LC
Codec ID : A_AAC
Duration : 55 min 4 s
Bit rate : 280 kb/s
Channel(s) : 6 channels
Channel positions : Front: L C R, Side: L R, LFE
Sampling rate : 48.0 kHz / 24.0 kHz
Frame rate : 23.438 FPS (1024 spf)
Compression mode : Lossy
Delay relative to video : 43 ms
Stream size : 110 MiB (12%)
Title : original
Language : English
Default : No
Forced : No

Text #1
ID : 7
Format : UTF-8
Codec ID : S_TEXT/UTF8
Codec ID/Info : UTF-8 Plain Text
Duration : 51 min 19 s
Bit rate : 94 b/s
Count of elements : 555
Stream size : 35.7 KiB (0%)
Language : Russian
Default : No
Forced : No

Text #2
ID : 8
Format : UTF-8
Codec ID : S_TEXT/UTF8
Codec ID/Info : UTF-8 Plain Text
Duration : 51 min 19 s
Bit rate : 53 b/s
Count of elements : 555
Stream size : 19.9 KiB (0%)
Language : English
Default : No
Forced : No




Скачать Табу.Taboo.(сезон.01).(Андерс.Энгстрем.Кристоффер.Нюхольм).[2017.драма.приключения.BDRip].3x[MVO.(AlexFilm.LostFilm.NewStudio)]+[DVO.(Кубик.в.Кубе)]+[Eng]+[Sub.Rus.Eng].torrent без регистрации
Золото ЗОЛОТАЯ РАЗДАЧА! СКАЧАННОЕ НЕ ЗАСЧИТЫВАЕТСЯ! Золото
Дата: Зарегистрирован   [ Тип: внешний ] Как тут cкачать?
MAGNET ссылка
MAGNET ссылка


Скачать .torrent

39 KB

Статус: проверено DHT
Скачан: торрент - 50 раз, раздача полностью - 59 раз
Размер: 7,54 GB
Оценка:  - (Голосов: 0)
Поблагодарили: 0
Поделиться ссылкой на эту раздачу с друзьями:
В контактеFacebookОдноклассникиTwitterLivejournalМой МирLiveinternet
 

 
Показать сообщения:    


Вы не можете начинать темы
Вы не можете отвечать на сообщения
Вы не можете редактировать свои сообщения
Вы не можете удалять свои сообщения
Вы не можете голосовать в опросах
Вы не можете прикреплять файлы к сообщениям
Вы можете скачивать файлы