Loading...
Error

Скачать (J-Pop) Nana Mizuki - Clips 7 [2016, BDRip] [1080p] торрент без регистрации

Статистика раздачи
Размер:  8,86 GB   |    Скачан:  13 раз
Сидов:  1  [  0 KB/s  ]  
 
 
 
Автор Сообщение

Marsianka

[] 

Название: Nana Mizuki Clips 7
Оригинальное название: NANA CLIPS 7
Год выхода: 2016
Жанр: J-Pop

Описание сборника:
Новый сборник клипов певицы изданный компанией King Records, включает в себя все клипы снятые по технологии 5К и 4К в период с 2011 года до сегодняшнего, в сборнике вы найдете эксклюзивный клип Pray созданный на самый популярный хит, так же остальные клипы, в том числе новый SuperMan и Exterminate.

Выпущено: Япония, King Records ltd.
Продолжительность: 7 x ~ 00:05:16, 00:23:15, 7 x ~ 00:10:16


1. Kindan no resistanse
2. Appassionato
3. Eden
4. Angel Blossom
5. Exterminate
6. SUPER☆MAN
7. Pray

Формат : Matroska
Версия формата : Version 4 / Version 2
Размер файла : 368 Мбайт
Продолжительность : 4 м. 57 с.
Режим общего битрейта : Переменный
Общий поток : 10,4 Мбит/сек
Дата кодирования : UTC 2017-01-29 16:05:58
Программа кодирования : mkvmerge v9.3.1 ('Mask Machine') 64bit
Библиотека кодирования : libebml v1.3.4 + libmatroska v1.4.5
Attachements : cover.jpg
DURATION : 00:04:57.089000000
NUMBER_OF_FRAMES : 7123
NUMBER_OF_BYTES : 329473347
_STATISTICS_WRITING_APP : mkvmerge v9.3.1 ('Mask Machine') 64bit
_STATISTICS_WRITING_DATE_UTC : 2017-01-29 16:05:58
_STATISTICS_TAGS : BPS DURATION NUMBER_OF_FRAMES NUMBER_OF_BYTES

Видео
Идентификатор : 2
Формат : AVC
Формат/Информация : Advanced Video Codec
Профиль формата : High@L4.1
Параметр CABAC формата : Да
Параметр ReFrames формата : 5 кадров
Идентификатор кодека : V_MPEG4/ISO/AVC
Продолжительность : 4 м. 57 с.
Вид битрейта : Переменный
Битрейт : 8888 Кбит/сек
Максимальный битрейт : 39,0 Мбит/сек
Ширина : 1920 пикселей
Высота : 1080 пикселей
Соотношение сторон : 16:9
Режим частоты кадров : Постоянный
Частота кадров : 23,976 кадра/сек
Цветовое пространство : YUV
Субдискретизация насыщенности : 4:2:0
Битовая глубина : 8 бит
Тип развёртки : Прогрессивная
Бит/(Пиксели*Кадры) : 0.179
Размер потока : 307 Мбайт (83%)
Заголовок : HD 1080P || Pro100 Encoding Team
Библиотека кодирования : x264 core 129 M9479+75 64bit by ProCoder[2016.07.08]Japan
Настройки программы : cabac=1 / ref=5 / deblock=1:-3:-3 / analyse=0x3:0x110 / me=umh / subme=11 / psy=1 / fade_compensate=0.00 / psy_rd=1.30:0.30 / mixed_ref=1 / me_range=35 / chroma_me=1 / trellis=2 / 8x8dct=1 / cqm=0 / deadzone=21,11 / fast_pskip=0 / chroma_qp_offset=-2 / threads=8 / lookahead_threads=3 / sliced_threads=0 / slices=60 / nr=8 / decimate=1 / interlaced=0 / bluray_compat=0 / constrained_intra=0 / fgo=0 / bframes=16 / b_pyramid=2 / b_adapt=2 / b_bias=12 / direct=2 / weightb=1 / open_gop=1 / weightp=2 / keyint=250 / keyint_min=24 / scenecut=40 / intra_refresh=0 / rc_lookahead=60 / rc=2pass / mbtree=1 / bitrate=8888 / ratetol=1.0 / qcomp=0.97 / qpmin=0 / qpmax=69 / qpstep=8 / cplxblur=20.0 / qblur=0.5 / vbv_maxrate=39000 / vbv_bufsize=95000 / nal_hrd=vbr / ip_ratio=1.40 / aq=3:0.70
Язык : English
Default : Да
Forced : Нет
Цветовой диапазон : Limited
Основные цвета : BT.709
Характеристики трансфера : BT.709
Коэффициенты матрицы : BT.709

Аудио
Идентификатор : 1
Формат : DTS
Формат/Информация : Digital Theater Systems
Режим : 16
Параметр Endianness формата : Big
Идентификатор кодека : A_DTS
Продолжительность : 4 м. 57 с.
Вид битрейта : Постоянный
Битрейт : 1509 Кбит/сек
Каналы : 2 канала
Расположение каналов : Front: L R
Частота : 48,0 КГц
Битовая глубина : 16 бит
Метод сжатия : С потерями
Задержка видео : 21 мс.
Размер потока : 53,5 Мбайт (15%)
Язык : Japanese
Default : Да
Forced : Нет

Формат : Matroska
Версия формата : Version 4 / Version 2
Размер файла : 720 Мбайт
Продолжительность : 10 м.
Режим общего битрейта : Переменный
Общий поток : 9552 Кбит/сек
Дата кодирования : UTC 2017-01-29 15:44:44
Программа кодирования : mkvmerge v9.3.1 ('Mask Machine') 64bit
Библиотека кодирования : libebml v1.3.4 + libmatroska v1.4.5
Attachements : cover.jpg
DURATION : 00:10:31.840000000
NUMBER_OF_FRAMES : 15149
NUMBER_OF_BYTES : 703415482
_STATISTICS_WRITING_APP : mkvmerge v9.3.1 ('Mask Machine') 64bit
_STATISTICS_WRITING_DATE_UTC : 2017-01-29 15:44:44
_STATISTICS_TAGS : BPS DURATION NUMBER_OF_FRAMES NUMBER_OF_BYTES

Видео
Идентификатор : 2
Формат : AVC
Формат/Информация : Advanced Video Codec
Профиль формата : High@L4.1
Параметр CABAC формата : Да
Параметр ReFrames формата : 5 кадров
Идентификатор кодека : V_MPEG4/ISO/AVC
Продолжительность : 10 м.
Вид битрейта : Переменный
Битрейт : 8888 Кбит/сек
Максимальный битрейт : 39,0 Мбит/сек
Ширина : 1920 пикселей
Высота : 1080 пикселей
Соотношение сторон : 16:9
Режим частоты кадров : Постоянный
Частота кадров : 23,976 кадра/сек
Цветовое пространство : YUV
Субдискретизация насыщенности : 4:2:0
Битовая глубина : 8 бит
Тип развёртки : Прогрессивная
Бит/(Пиксели*Кадры) : 0.179
Размер потока : 657 Мбайт (91%)
Заголовок : HD 1080P || Pro100 Encoding Team
Библиотека кодирования : x264 core 129 M9479+75 64bit by ProCoder[2016.07.08]Japan
Настройки программы : cabac=1 / ref=5 / deblock=1:-3:-3 / analyse=0x3:0x110 / me=umh / subme=11 / psy=1 / fade_compensate=0.00 / psy_rd=1.30:0.30 / mixed_ref=1 / me_range=35 / chroma_me=1 / trellis=2 / 8x8dct=1 / cqm=0 / deadzone=21,11 / fast_pskip=0 / chroma_qp_offset=-2 / threads=8 / lookahead_threads=3 / sliced_threads=0 / slices=60 / nr=8 / decimate=1 / interlaced=0 / bluray_compat=0 / constrained_intra=0 / fgo=0 / bframes=16 / b_pyramid=2 / b_adapt=2 / b_bias=12 / direct=2 / weightb=1 / open_gop=1 / weightp=2 / keyint=250 / keyint_min=24 / scenecut=40 / intra_refresh=0 / rc_lookahead=60 / rc=2pass / mbtree=1 / bitrate=8888 / ratetol=1.0 / qcomp=0.97 / qpmin=0 / qpmax=69 / qpstep=8 / cplxblur=20.0 / qblur=0.5 / vbv_maxrate=39000 / vbv_bufsize=95000 / nal_hrd=vbr / ip_ratio=1.40 / aq=3:0.70
Язык : Japanese
Default : Да
Forced : Нет
Цветовой диапазон : Limited
Основные цвета : BT.709
Характеристики трансфера : BT.709
Коэффициенты матрицы : BT.709

Аудио
Идентификатор : 1
Формат : AC-3
Формат/Информация : Audio Coding 3
Расширение режима : CM (complete main)
Параметр Endianness формата : Big
Идентификатор кодека : A_AC3
Продолжительность : 10 м.
Вид битрейта : Постоянный
Битрейт : 640 Кбит/сек
Каналы : 2 канала
Расположение каналов : Front: L R
Частота : 48,0 КГц
Метод сжатия : С потерями
Размер потока : 48,2 Мбайт (7%)
Язык : Japanese
Default : Да
Forced : Нет

Релиз: Pro100 Encoding Team
Кодирование: ProCoder
Формат: MKV
Источник: Nana Clips 7 Blu-ray
Видео: 1920x1080, 1920x816 at 23.970 fps, MPEG-4 AVC, ~8888 kbps avg (2-pass)
Аудио#1: Japanese: 48 kHz/16-bit, DTS 2.0, 1509.00 kbps avg for Clips
Аудио#2: Japanese: 48 kHz/16-bit, AC3 2.0, 640.00 kbps avg for Making



Скачать Nana.Mizuki.-.Clips.7.[2016.BDRip].[1080p].torrent без регистрации
Золото ЗОЛОТАЯ РАЗДАЧА! СКАЧАННОЕ НЕ ЗАСЧИТЫВАЕТСЯ! Золото
Дата: Зарегистрирован   [ Тип: внутренний ] Как тут cкачать?
MAGNET ссылка
MAGNET ссылка


Скачать .torrent

25 KB

Статус: проверено DHT
Скачан: торрент - 13 раз, раздача полностью - 3 раз
Размер: 8,86 GB
Оценка:  - (Голосов: 0)
Поблагодарили: 0
Поделиться ссылкой на эту раздачу с друзьями:
В контактеFacebookОдноклассникиTwitterLivejournalМой МирLiveinternet
 

 
Показать сообщения:    


Вы не можете начинать темы
Вы не можете отвечать на сообщения
Вы не можете редактировать свои сообщения
Вы не можете удалять свои сообщения
Вы не можете голосовать в опросах
Вы не можете прикреплять файлы к сообщениям
Вы можете скачивать файлы