Loading...
Error

Скачать Преисподняя / Brimstone (Мартин Кулховен) [2016, триллер, детектив, вестерн, BDRip] [1080p] [MVO (лицензия)]+[Eng]+[Sub Rus, Eng] торрент без регистрации

Статистика раздачи
Размер:  14,76 GB   |    Скачан:  382 раза
Сидов:  1  [  0 KB/s  ]  
 
 
 
Автор Сообщение

МихаНЕзатор

[] 

Преисподняя / Brimstone


Страна: Нидерланды Франция Германия Бельгия Швеция Великобритания
Производство: Backup Media, FilmWave, Illusion Film & Television AB, N279 Entertainment, Prime Time, X-Filme Creative Pool
Год выпуска: 2016
Жанр: триллер, детектив, вестерн
Режиссер: Мартин Кулховен
Автор сценария: Мартин Кулховен

В ролях: Дакота Фаннинг, Кит Харингтон, Кэрис ван Хаутен, Гай Пирс, Пол Андерсон, Эмилия Джонс, Карла Юри, Тиго Гернандт, Джек Рот

Описание: История о девушке по имени Лиз, которая пытается сбежать от своего темного прошлого и скрывается от преследования «дьявольского» проповедника...

Дата премьеры (мир): 3 сентября 2016
Дата премьеры (РФ): 12 января 2017, «Вольга»



Продолжительность: 02:28:45
Перевод: Профессиональный (многоголосый, закадровый) | Лицензия
Субтитры: Русские (full), английские (forced, full)

Файл
Качество: BDRip 1080p
Видео: MPEG-4 AVC, 1920x804, 11.4 Mbit/s, 23.976 fps
Звук:
Аудио #01: 48 kHz, DTS, 5.1, 1510 Kbps | Лицензия | RUS |
Аудио #02: 48 kHz, AC3, 5.1, 640 Kbps | Лицензия | RUS |
Аудио #03: 48 kHz, AC3, 5.1, 640 Kbps | Оригинал | ENG |

АНОНСЫ ПОПУЛЯРНЫХ РАЗДАЧ


Торрент обновлён, улучшен видеоряд и звук!

General
Unique ID : 227359092578010673800545131275832115005 (0xAB0BC4B94D1365B09D0D39CC490DBF3D)
Complete name : G:VideoSSDBrimstone.2016.Lic.BDRip.1080p.ExKinoRay.mkv
Format : Matroska
Format version : Version 4 / Version 2
File size : 14.8 GiB
Duration : 2 h 28 min
Overall bit rate : 14.2 Mb/s
Movie name : Brimstone.2016.ExKinoRay
Encoded date : UTC 2017-11-27 17:24:43
Writing application : mkvmerge v17.0.0 ('Be Ur Friend') 64-bit
Writing library : libebml v1.3.5 + libmatroska v1.4.8

Video
ID : 1
Format : AVC
Format/Info : Advanced Video Codec
Format profile : High@L4.1
Format settings : CABAC / 4 Ref Frames
Format settings, CABAC : Yes
Format settings, RefFrames : 4 frames
Codec ID : V_MPEG4/ISO/AVC
Duration : 2 h 28 min
Bit rate : 11.4 Mb/s
Width : 1 920 pixels
Height : 804 pixels
Display aspect ratio : 2.40:1
Frame rate mode : Constant
Frame rate : 23.976 (24000/1001) FPS
Color space : YUV
Chroma subsampling : 4:2:0
Bit depth : 8 bits
Scan type : Progressive
Bits/(Pixel*Frame) : 0.309
Stream size : 11.9 GiB (80%)
Writing library : x264 core 149 r2771+45 509cceb 7mod [8-bit@all X86_64]
Encoding settings : cabac=1 / ref=4 / deblock=1:-3:-3 / analyse=0x3:0x113 / me=umh / subme=10 / psy=1 / fade_compensate=0.00 / psy_rd=1.00:0.05 / mixed_ref=1 / me_range=48 / chroma_me=1 / trellis=2 / 8x8dct=1 / cqm=0 / deadzone=21,11 / fast_pskip=0 / chroma_qp_offset=-2 / threads=12 / lookahead_threads=2 / sliced_threads=0 / nr=0 / decimate=1 / interlaced=0 / bluray_compat=0 / constrained_intra=0 / fgo=0 / bframes=8 / b_pyramid=2 / b_adapt=2 / b_bias=0 / direct=3 / weightb=1 / open_gop=0 / weightp=2 / keyint=250 / keyint_min=23 / scenecut=40 / intra_refresh=0 / rc_lookahead=40 / rc=crf / mbtree=0 / crf=18.5000 / qcomp=0.60 / qpmin=0:0:0 / qpmax=69:69:69 / qpstep=4 / vbv_maxrate=35000 / vbv_bufsize=35000 / crf_max=0.0 / nal_hrd=none / filler=0 / ip_ratio=1.40 / pb_ratio=1.30 / aq=3:1.00 / aq-sensitivity=10.00 / aq-factor=1.00:1.00:1.00 / aq2=0 / aq3=0
Language : English
Default : Yes
Forced : No
Color range : Limited
Matrix coefficients : BT.709

Audio #1
ID : 2
Format : DTS
Format/Info : Digital Theater Systems
Mode : 16
Format settings, Endianness : Big
Codec ID : A_DTS
Duration : 2 h 28 min
Bit rate mode : Constant
Bit rate : 1 509 kb/s
Channel(s) : 6 channels
Channel positions : Front: L C R, Side: L R, LFE
Sampling rate : 48.0 kHz
Frame rate : 93.750 FPS (512 SPF)
Bit depth : 24 bits
Compression mode : Lossy
Stream size : 1.57 GiB (11%)
Title : Dub [License]
Language : Russian
Default : Yes
Forced : No

Audio #2
ID : 3
Format : AC-3
Format/Info : Audio Coding 3
Format settings, Endianness : Big
Codec ID : A_AC3
Duration : 2 h 28 min
Bit rate mode : Constant
Bit rate : 640 kb/s
Channel(s) : 6 channels
Channel positions : Front: L C R, Side: L R, LFE
Sampling rate : 48.0 kHz
Frame rate : 31.250 FPS (1536 SPF)
Bit depth : 16 bits
Compression mode : Lossy
Stream size : 680 MiB (4%)
Title : Dub [License]
Language : Russian
Service kind : Complete Main
Default : No
Forced : No

Audio #3
ID : 4
Format : AC-3
Format/Info : Audio Coding 3
Format settings, Endianness : Big
Codec ID : A_AC3
Duration : 2 h 28 min
Bit rate mode : Constant
Bit rate : 640 kb/s
Channel(s) : 6 channels
Channel positions : Front: L C R, Side: L R, LFE
Sampling rate : 48.0 kHz
Frame rate : 31.250 FPS (1536 SPF)
Bit depth : 16 bits
Compression mode : Lossy
Stream size : 680 MiB (4%)
Title : Original
Language : English
Service kind : Complete Main
Default : No
Forced : No

Text #1
ID : 5
Format : UTF-8
Codec ID : S_TEXT/UTF8
Codec ID/Info : UTF-8 Plain Text
Duration : 2 h 18 min
Bit rate : 45 b/s
Count of elements : 1018
Stream size : 46.6 KiB (0%)
Title : Full
Language : Russian
Default : No
Forced : No

Text #2
ID : 6
Format : UTF-8
Codec ID : S_TEXT/UTF8
Codec ID/Info : UTF-8 Plain Text
Duration : 2 h 0 min
Bit rate : 0 b/s
Count of elements : 32
Stream size : 836 Bytes (0%)
Title : Forced
Language : English
Default : No
Forced : No

Text #3
ID : 7
Format : UTF-8
Codec ID : S_TEXT/UTF8
Codec ID/Info : UTF-8 Plain Text
Duration : 2 h 18 min
Bit rate : 27 b/s
Count of elements : 948
Stream size : 28.2 KiB (0%)
Title : Full
Language : English
Default : No
Forced : No

Menu
00:00:00.000 : en:00:00:00.000
00:04:29.853 : en:00:04:29.853
00:11:51.920 : en:00:11:51.920
00:19:58.489 : en:00:19:58.489
00:25:06.213 : en:00:25:06.213
00:32:22.190 : en:00:32:22.190
00:42:25.042 : en:00:42:25.042
00:48:21.148 : en:00:48:21.148
00:55:44.341 : en:00:55:44.341
01:01:14.254 : en:01:01:14.254
01:06:42.040 : en:01:06:42.040
01:17:13.963 : en:01:17:13.963
01:24:38.156 : en:01:24:38.156
01:32:47.312 : en:01:32:47.312
01:39:57.241 : en:01:39:57.241
01:49:04.788 : en:01:49:04.788
01:56:10.630 : en:01:56:10.630
02:02:54.867 : en:02:02:54.867
02:13:38.177 : en:02:13:38.177
02:20:17.909 : en:02:20:17.909



Скачать Преисподняя.Brimstone.(Мартин.Кулховен).[2016.триллер.детектив.вестерн.BDRip].[1080p].[MVO.(лицензия)]+[Eng]+[Sub.Rus.Eng].torrent без регистрации
Золото ЗОЛОТАЯ РАЗДАЧА! СКАЧАННОЕ НЕ ЗАСЧИТЫВАЕТСЯ! Золото
Дата: Зарегистрирован   [ Тип: внутренний ] Как тут cкачать?
MAGNET ссылка
MAGNET ссылка


Скачать .torrent

75 KB

Статус: проверено DHT
Скачан: торрент - 382 раз, раздача полностью - 11 раз
Размер: 14,76 GB
Оценка:  5 (Голосов: 3)
Поблагодарили: 15
Поделиться ссылкой на эту раздачу с друзьями:
В контактеFacebookОдноклассникиTwitterLivejournalМой МирLiveinternet
 

 
Показать сообщения:    


Вы не можете начинать темы
Вы не можете отвечать на сообщения
Вы не можете редактировать свои сообщения
Вы не можете удалять свои сообщения
Вы не можете голосовать в опросах
Вы не можете прикреплять файлы к сообщениям
Вы можете скачивать файлы