Loading...
Error

Скачать Возвращение живых мертвецов 5: Рейв из могилы / Return of the Living Dead: Rave to the Grave (Эллори Элкайем) [2005, ужасы, фантастика, комедия, HDRip-AVC] [DVO]+[Eng]+[Sub] торрент без регистрации

Статистика раздачи
Размер:  1,55 GB   |    Скачан:  9 раз
Сидов:  1  [  0 KB/s  ]  
 
 
 
Автор Сообщение

Marsianka

[] 

Название: Возвращение живых мертвецов 5: Рейв из могилы
Оригинальное название: Return of the Living Dead: Rave to the Grave
Год выхода: 2005
Страна: США
Студия: Aurora Entertainment, Castel Film Romania, Denholm Trading Inc.
Продолжительность: 01:33:50
Жанр: ужасы, фантастика, комедия

Режиссер: Эллори Элкайем
В ролях: Эйми-Линн Чедвик, Кори Хардрикт, Джон Киф, Дженни Моллен, Питер Койот, Клаудиу Блеонт, Сорин Кокис, Кэйн, Джордж Думитреску, Мария Динулеску, ...

Перевод: Профессиональный (двухголосый, закадровый)

О фильме: Юлиан и его друзья, которые сумели сбежать из Некрополиса, находятся теперь в колледже. И случайно Юлиан и Дженни обнаруживают канистру с химикатами, спрятанную в секретной комнате. Пробуя протестировать этот химикат, они оставляют это их другу Коди для анализа. К сожалению, Коди быстро находит пользу в этом химикате для себя, чтобы создать новый наркотик для вечеринок и заработать на этом легкие деньги…



Кодек: x264
Качество: HDRip-AVC
Видео: 720x400, 1973 kbps, 23,976 fps
Аудио #1: AC-3, 2 ch, 192 kbps (Rus) - DVO
Аудио #2: AC-3, 2 ch, 192 kbps (Eng)
Субтитры: Английские
Общее
Уникальный идентификатор : 214801341458434798509823140222290007122 (0xA1993BCAA64027D6AD75E62ED0829452)
Полное имя : Возвращение живых мертвецов 5 Рейв из могилы (Return of...) 2005 HDRip R-Rated.mkv
Формат : Matroska
Версия формата : Version 2
Размер файла : 1,55 Гбайт
Продолжительность : 1 ч. 33 м.
Общий поток : 2358 Кбит/сек
Дата кодирования : UTC 2017-02-13 01:41:42
Программа кодирования : mkvmerge v4.0.0 ('The Stars were mine') сборка от Jun 6 2010 16:18:42
Библиотека кодирования : libebml v1.0.0 + libmatroska v1.0.0

Видео
Идентификатор : 1
Формат : AVC
Формат/Информация : Advanced Video Codec
Профиль формата : High@L3
Параметр CABAC формата : Да
Параметр ReFrames формата : 4 кадра
Идентификатор кодека : V_MPEG4/ISO/AVC
Продолжительность : 1 ч. 33 м.
Битрейт : 1973 Кбит/сек
Ширина : 720 пикселей
Высота : 400 пикселей
Соотношение сторон : 16:9
Режим частоты кадров : Постоянный
Частота кадров : 23,976 (24000/1001) кадра/сек
Цветовое пространство : YUV
Субдискретизация насыщенности : 4:2:0
Битовая глубина : 8 бит
Тип развёртки : Прогрессивная
Бит/(Пиксели*Кадры) : 0.286
Размер потока : 1,26 Гбайт (82%)
Библиотека кодирования : x264 core 133 r2334 a3ac64b
Настройки программы : cabac=1 / ref=3 / deblock=1:0:0 / analyse=0x3:0x113 / me=hex / subme=7 / psy=1 / psy_rd=1.00:0.00 / mixed_ref=1 / me_range=16 / chroma_me=1 / trellis=1 / 8x8dct=1 / cqm=0 / deadzone=21,11 / fast_pskip=1 / chroma_qp_offset=-2 / threads=3 / lookahead_threads=1 / sliced_threads=0 / nr=0 / decimate=1 / interlaced=0 / bluray_compat=0 / constrained_intra=0 / bframes=3 / b_pyramid=2 / b_adapt=1 / b_bias=0 / direct=1 / weightb=1 / open_gop=0 / weightp=2 / keyint=240 / keyint_min=23 / scenecut=40 / intra_refresh=0 / rc_lookahead=40 / rc=2pass / mbtree=1 / bitrate=1973 / ratetol=1.0 / qcomp=0.60 / qpmin=0 / qpmax=69 / qpstep=4 / cplxblur=20.0 / qblur=0.5 / ip_ratio=1.40 / aq=1:1.00
Язык : English
Default : Нет
Forced : Нет

Аудио #1
Идентификатор : 2
Формат : AC-3
Формат/Информация : Audio Coding 3
Расширение режима : CM (complete main)
Параметр Endianness формата : Big
Идентификатор кодека : A_AC3
Продолжительность : 1 ч. 33 м.
Вид битрейта : Постоянный
Битрейт : 192 Кбит/сек
Каналы : 2 канала
Расположение каналов : Front: L R
Частота : 48,0 КГц
Частота кадров : 31,250 кадров/сек (1536 spf)
Метод сжатия : С потерями
Размер потока : 129 Мбайт (8%)
Заголовок : DVO
Язык : Russian
Default : Нет
Forced : Нет

Аудио #2
Идентификатор : 3
Формат : AC-3
Формат/Информация : Audio Coding 3
Расширение режима : CM (complete main)
Параметр Endianness формата : Big
Идентификатор кодека : A_AC3
Продолжительность : 1 ч. 33 м.
Вид битрейта : Постоянный
Битрейт : 192 Кбит/сек
Каналы : 2 канала
Расположение каналов : Front: L R
Частота : 48,0 КГц
Частота кадров : 31,250 кадров/сек (1536 spf)
Метод сжатия : С потерями
Размер потока : 129 Мбайт (8%)
Язык : English
Default : Нет
Forced : Нет

Текст
Идентификатор : 4
Формат : UTF-8
Идентификатор кодека : S_TEXT/UTF8
Идентификатор кодека/Информация : UTF-8 Plain Text
Язык : English
Default : Нет
Forced : Нет



Скачать Возвращение.живых.мертвецов.5.Рейв.из.могилы.Return.of.the.Living.Dead.Rave.to.the.Grave.(Эллори.Элкайем).[2005.ужасы.фантастика.комедия.HDRip-AVC].[DVO]+[Eng]+[Sub].torrent без регистрации
Золото ЗОЛОТАЯ РАЗДАЧА! СКАЧАННОЕ НЕ ЗАСЧИТЫВАЕТСЯ! Золото
Дата: Зарегистрирован   [ Тип: внутренний ] Как тут cкачать?
MAGNET ссылка
MAGNET ссылка


Скачать .torrent

16 KB

Статус: проверено DHT
Скачан: торрент - 9 раз, раздача полностью - 1 раз
Размер: 1,55 GB
Оценка:  - (Голосов: 0)
Поблагодарили: 0
Поделиться ссылкой на эту раздачу с друзьями:
В контактеFacebookОдноклассникиTwitterLivejournalМой МирLiveinternet
 

 
Показать сообщения:    


Вы не можете начинать темы
Вы не можете отвечать на сообщения
Вы не можете редактировать свои сообщения
Вы не можете удалять свои сообщения
Вы не можете голосовать в опросах
Вы не можете прикреплять файлы к сообщениям
Вы можете скачивать файлы