Loading...
Error

Скачать (Pop, R`n`B, Electropop) Bebe Rexha - Сборник клипов [10 шт.] [2013-2017, WEB-DLRip] [720p, 1080p, 1440p] торрент без регистрации

Статистика раздачи
Размер:  1,79 GB   |    Скачан:  30 раз
Сидов:  1  [  0 KB/s  ]  
 
 
 
Автор Сообщение

Marsianka

[] 

Информация о фильме
Название: Bebe Rexha - Сборник клипов
Год выхода: 2013-2017
Количество клипов: 10 шт.
Жанр: Pop, R`n`B, Electropop
01. Bebe Rexha - Comeback Kids 720p
02. Bebe Rexha - I Can't Stop Drinking About You 1080p
03. Bebe Rexha - I Got You (The Keys of Christmas) YoutubeRed Master 1440p
04. Bebe Rexha - I Got You Master 1080p
05. Bebe Rexha - I'm Gonna Show You Crazy 1080p
06. Bebe Rexha feat. Nicki Minaj - No Broken Hearts MasterRip 1080p
07. Cash Cash - Take Me Home ft Bebe Rexha 1080p
08. G-Eazy feat. Bebe Rexha - Me, Myself & I 1080p
09. Martin Garrix & Bebe Rexha - In the Name of Love MasterRip 1080p
10. Nico & Vinz - That's How You Know feat. Kid Ink & Bebe Rexha 1080p

Полное имя : Bebe Rexha - Comeback Kids 720p.mp4
Формат : MPEG-4
Профиль формата : Base Media / Version 2
Идентификатор кодека : mp42 (isom/mp42)
Размер файла : 45,3 Мбайт
Продолжительность : 3 м. 43 с.
Режим общего битрейта : Переменный
Общий поток : 1702 Кбит/сек
Дата кодирования : UTC 2016-09-02 06:39:08
Дата пометки : UTC 2016-09-02 06:39:08
gsst : 0
gstd : 223236

Видео
Идентификатор : 1
Формат : AVC
Формат/Информация : Advanced Video Codec
Профиль формата : Main@L3.1
Параметр CABAC формата : Да
Параметр ReFrames формата : 3 кадра
Идентификатор кодека : avc1
Идентификатор кодека/Информация : Advanced Video Coding
Продолжительность : 3 м. 43 с.
Битрейт : 1572 Кбит/сек
Ширина : 1280 пикселей
Высота : 720 пикселей
Соотношение сторон : 16:9
Режим частоты кадров : Переменный
Частота кадров : 23,976 (24000/1001) кадра/сек
Минимальная частота кадров : 23,974 кадра/сек
Максимальная частота кадров : 23,981 кадра/сек
Цветовое пространство : YUV
Субдискретизация насыщенности : 4:2:0
Битовая глубина : 8 бит
Тип развёртки : Прогрессивная
Бит/(Пиксели*Кадры) : 0.071
Размер потока : 41,8 Мбайт (92%)
Заголовок : ISO Media file produced by Google Inc.
Дата кодирования : UTC 2016-09-02 06:39:08
Дата пометки : UTC 2016-09-02 06:39:08
Цветовой диапазон : Limited
Основные цвета : BT.709
Характеристики трансфера : BT.709
Коэффициенты матрицы : BT.709

Аудио
Идентификатор : 2
Формат : AAC
Формат/Информация : Advanced Audio Codec
Профиль формата : LC
Идентификатор кодека : 40
Продолжительность : 3 м. 43 с.
Вид битрейта : Переменный
Битрейт : 126 Кбит/сек
Каналы : 2 канала
Расположение каналов : Front: L R
Частота : 44,1 КГц
Частота кадров : 43,066 кадра/сек (1024 spf)
Метод сжатия : С потерями
Размер потока : 3,34 Мбайт (7%)
Заголовок : ISO Media file produced by Google Inc.
Дата кодирования : UTC 2016-09-02 06:39:08
Дата пометки : UTC 2016-09-02 06:39:08

Полное имя : Bebe Rexha - I Can't Stop Drinking About You 1080p.mp4
Формат : MPEG-4
Профиль формата : Base Media
Идентификатор кодека : isom (isom/iso2/avc1/mp41)
Размер файла : 55,4 Мбайт
Продолжительность : 3 м. 44 с.
Общий поток : 2075 Кбит/сек
Программа кодирования : Lavf57.2.100

Видео
Идентификатор : 1
Формат : AVC
Формат/Информация : Advanced Video Codec
Профиль формата : High@L4
Параметр CABAC формата : Да
Параметр ReFrames формата : 3 кадра
Идентификатор кодека : avc1
Идентификатор кодека/Информация : Advanced Video Coding
Продолжительность : 3 м. 44 с.
Битрейт : 1944 Кбит/сек
Ширина : 1920 пикселей
Высота : 1080 пикселей
Соотношение сторон : 16:9
Режим частоты кадров : Постоянный
Частота кадров : 24,000 кадра/сек
Цветовое пространство : YUV
Субдискретизация насыщенности : 4:2:0
Битовая глубина : 8 бит
Тип развёртки : Прогрессивная
Бит/(Пиксели*Кадры) : 0.039
Размер потока : 51,9 Мбайт (94%)
Цветовой диапазон : Limited
Основные цвета : BT.709
Характеристики трансфера : BT.709
Коэффициенты матрицы : BT.709

Аудио
Идентификатор : 2
Формат : AAC
Формат/Информация : Advanced Audio Codec
Профиль формата : LC
Идентификатор кодека : 40
Продолжительность : 3 м. 44 с.
Вид битрейта : Постоянный
Битрейт : 126 Кбит/сек
Каналы : 2 канала
Расположение каналов : Front: L R
Частота : 44,1 КГц
Частота кадров : 43,066 кадра/сек (1024 spf)
Метод сжатия : С потерями
Размер потока : 3,36 Мбайт (6%)
Default : Да
Alternate group : 1

Полное имя : Bebe Rexha - I Got You (The Keys of Christmas) YoutubeRed Master 1440p.m2ts
Формат : BDAV
Формат/Информация : Blu-ray Video
Размер файла : 181 Мбайт
Продолжительность : 2 м. 47 с.
Режим общего битрейта : Переменный
Общий поток : 9035 Кбит/сек
Максимальный общий битрейт : 35,5 Мбит/сек

Видео
Идентификатор : 4113 (0x1011)
Идентификатор меню : 1 (0x1)
Формат : AVC
Формат/Информация : Advanced Video Codec
Профиль формата : High@L5
Параметр CABAC формата : Да
Параметр ReFrames формата : 2 кадра
Идентификатор кодека : 27
Продолжительность : 2 м. 46 с.
Вид битрейта : Переменный
Максимальный битрейт : 40,0 Мбит/сек
Ширина : 2560 пикселей
Высота : 1440 пикселей
Соотношение сторон : 16:9
Частота кадров : 23,976 (24000/1001) кадра/сек
Цветовое пространство : YUV
Субдискретизация насыщенности : 4:2:0
Битовая глубина : 8 бит
Тип развёртки : Прогрессивная
Цветовой диапазон : Limited
Основные цвета : BT.709
Характеристики трансфера : BT.709
Коэффициенты матрицы : BT.709

Аудио
Идентификатор : 4352 (0x1100)
Идентификатор меню : 1 (0x1)
Формат : AAC
Формат/Информация : Advanced Audio Codec
Версия формата : Version 2
Профиль формата : LC
Режим смешивания : ADTS
Идентификатор кодека : 15
Продолжительность : 2 м. 47 с.
Вид битрейта : Переменный
Каналы : 2 канала
Расположение каналов : Front: L R
Частота : 44,1 КГц
Частота кадров : 43,066 кадра/сек (1024 spf)
Метод сжатия : С потерями
Задержка видео : -53 мс.

Полное имя : Bebe Rexha - I Got You Master 1080p.mp4
Формат : MPEG-4
Профиль формата : Base Media / Version 2
Идентификатор кодека : mp42 (mp42/mp41)
Размер файла : 907 Мбайт
Продолжительность : 3 м. 8 с.
Режим общего битрейта : Переменный
Общий поток : 40,3 Мбит/сек
Дата кодирования : UTC 2017-01-16 20:49:43
Дата пометки : UTC 2017-01-16 20:49:43
©TIM : 00:00:00:00
©TSC : 25
©TSZ : 1

Видео
Идентификатор : 1
Формат : AVC
Формат/Информация : Advanced Video Codec
Профиль формата : High@L4.2
Параметр CABAC формата : Да
Параметр ReFrames формата : 3 кадра
Идентификатор кодека : avc1
Идентификатор кодека/Информация : Advanced Video Coding
Продолжительность : 3 м. 8 с.
Битрейт : 40,0 Мбит/сек
Ширина : 1920 пикселей
Высота : 1080 пикселей
Соотношение сторон : 16:9
Режим частоты кадров : Постоянный
Частота кадров : 25,000 кадров/сек
Стандарт вещания : PAL
Цветовое пространство : YUV
Субдискретизация насыщенности : 4:2:0
Битовая глубина : 8 бит
Тип развёртки : Прогрессивная
Бит/(Пиксели*Кадры) : 0.771
Размер потока : 900 Мбайт (99%)
Язык : English
Дата кодирования : UTC 2017-01-16 20:49:43
Дата пометки : UTC 2017-01-16 20:49:43
Цветовой диапазон : Limited
Основные цвета : BT.709
Характеристики трансфера : BT.709
Коэффициенты матрицы : BT.709

Аудио
Идентификатор : 2
Формат : AAC
Формат/Информация : Advanced Audio Codec
Профиль формата : LC
Идентификатор кодека : 40
Продолжительность : 3 м. 8 с.
Продолжительность оригинала : 3 м. 8 с.
Вид битрейта : Переменный
Битрейт : 317 Кбит/сек
Максимальный битрейт : 410 Кбит/сек
Каналы : 2 канала
Расположение каналов : Front: L R
Частота : 48,0 КГц
Частота кадров : 46,875 кадров/сек (1024 spf)
Метод сжатия : С потерями
Размер потока : 7,14 Мбайт (1%)
Размер потока оригинала : 7,14 Мбайт (1%)
Язык : English
Дата кодирования : UTC 2017-01-16 20:49:43
Дата пометки : UTC 2017-01-16 20:49:43

Полное имя : Bebe Rexha - I'm Gonna Show You Crazy 1080p.mp4
Формат : MPEG-4
Профиль формата : Base Media
Идентификатор кодека : isom (isom/iso2/avc1/mp41)
Размер файла : 85,1 Мбайт
Продолжительность : 4 м. 45 с.
Общий поток : 2503 Кбит/сек
Программа кодирования : Lavf57.2.100

Видео
Идентификатор : 1
Формат : AVC
Формат/Информация : Advanced Video Codec
Профиль формата : High@L4
Параметр CABAC формата : Да
Параметр ReFrames формата : 3 кадра
Идентификатор кодека : avc1
Идентификатор кодека/Информация : Advanced Video Coding
Продолжительность : 4 м. 44 с.
Битрейт : 2371 Кбит/сек
Ширина : 1920 пикселей
Высота : 1080 пикселей
Соотношение сторон : 16:9
Режим частоты кадров : Переменный
Частота кадров : 23,976 кадра/сек
Минимальная частота кадров : 23,974 кадра/сек
Максимальная частота кадров : 23,981 кадра/сек
Цветовое пространство : YUV
Субдискретизация насыщенности : 4:2:0
Битовая глубина : 8 бит
Тип развёртки : Прогрессивная
Бит/(Пиксели*Кадры) : 0.048
Размер потока : 80,6 Мбайт (95%)

Аудио
Идентификатор : 2
Формат : AAC
Формат/Информация : Advanced Audio Codec
Профиль формата : LC
Идентификатор кодека : 40
Продолжительность : 4 м. 45 с.
Вид битрейта : Постоянный
Битрейт : 126 Кбит/сек
Каналы : 2 канала
Расположение каналов : Front: L R
Частота : 44,1 КГц
Частота кадров : 43,066 кадра/сек (1024 spf)
Метод сжатия : С потерями
Размер потока : 4,27 Мбайт (5%)
Default : Да
Alternate group : 1

Полное имя : Bebe Rexha ft. Nicki Minaj - No Broken Hearts MasterRip 1080p.mp4
Формат : MPEG-4
Профиль формата : Base Media / Version 2
Идентификатор кодека : mp42 (mp42/isom)
Размер файла : 186 Мбайт
Продолжительность : 4 м. 4 с.
Режим общего битрейта : Переменный
Общий поток : 6383 Кбит/сек

Видео
Идентификатор : 1
Формат : AVC
Формат/Информация : Advanced Video Codec
Профиль формата : High@L4
Параметр CABAC формата : Да
Параметр ReFrames формата : 8 кадров
Идентификатор кодека : avc1
Идентификатор кодека/Информация : Advanced Video Coding
Продолжительность : 4 м. 4 с.
Вид битрейта : Переменный
Битрейт : 6057 Кбит/сек
Максимальный битрейт : 40,0 Мбит/сек
Ширина : 1920 пикселей
Высота : 1080 пикселей
Соотношение сторон : 16:9
Режим частоты кадров : Переменный
Частота кадров : 23,976 (24000/1001) кадра/сек
Минимальная частота кадров : 23,974 кадра/сек
Максимальная частота кадров : 23,981 кадра/сек
Цветовое пространство : YUV
Субдискретизация насыщенности : 4:2:0
Битовая глубина : 8 бит
Тип развёртки : Прогрессивная
Бит/(Пиксели*Кадры) : 0.122
Размер потока : 177 Мбайт (95%)
Язык : English
mdhd_Duration : 244828

Аудио
Идентификатор : 2
Формат : AAC
Формат/Информация : Advanced Audio Codec
Профиль формата : LC
Идентификатор кодека : 40
Продолжительность : 4 м. 4 с.
Продолжительность оригинала : 4 м. 4 с.
Вид битрейта : Переменный
Битрейт : 320 Кбит/сек
Каналы : 2 канала
Расположение каналов : Front: L R
Частота : 48,0 КГц
Частота кадров : 46,875 кадров/сек (1024 spf)
Метод сжатия : С потерями
Размер потока : 9,34 Мбайт (5%)
Размер потока оригинала : 9,34 Мбайт (5%)
Язык : English
mdhd_Duration : 244821

Полное имя : Cash Cash - Take Me Home ft Bebe Rexha 1080p.mp4
Формат : MPEG-4
Профиль формата : Base Media
Идентификатор кодека : isom (isom/iso2/avc1/mp41)
Размер файла : 51,8 Мбайт
Продолжительность : 3 м. 24 с.
Общий поток : 2127 Кбит/сек
Программа кодирования : Lavf57.2.100

Видео
Идентификатор : 1
Формат : AVC
Формат/Информация : Advanced Video Codec
Профиль формата : High@L4
Параметр CABAC формата : Да
Параметр ReFrames формата : 3 кадра
Идентификатор кодека : avc1
Идентификатор кодека/Информация : Advanced Video Coding
Продолжительность : 3 м. 24 с.
Битрейт : 1995 Кбит/сек
Ширина : 1920 пикселей
Высота : 1080 пикселей
Соотношение сторон : 16:9
Режим частоты кадров : Переменный
Частота кадров : 23,976 кадра/сек
Минимальная частота кадров : 23,974 кадра/сек
Максимальная частота кадров : 23,981 кадра/сек
Цветовое пространство : YUV
Субдискретизация насыщенности : 4:2:0
Битовая глубина : 8 бит
Тип развёртки : Прогрессивная
Бит/(Пиксели*Кадры) : 0.040
Размер потока : 48,6 Мбайт (94%)
Цветовой диапазон : Limited
Основные цвета : BT.709
Характеристики трансфера : BT.709
Коэффициенты матрицы : BT.709

Аудио
Идентификатор : 2
Формат : AAC
Формат/Информация : Advanced Audio Codec
Профиль формата : LC
Идентификатор кодека : 40
Продолжительность : 3 м. 24 с.
Вид битрейта : Постоянный
Битрейт : 126 Кбит/сек
Каналы : 2 канала
Расположение каналов : Front: L R
Частота : 44,1 КГц
Частота кадров : 43,066 кадра/сек (1024 spf)
Метод сжатия : С потерями
Размер потока : 3,06 Мбайт (6%)
Default : Да
Alternate group : 1

Полное имя : G-Eazy Ft. Bebe Rexha - Me, Myself & I 1080p.mp4
Формат : MPEG-4
Профиль формата : Base Media
Идентификатор кодека : isom (isom/iso2/avc1/mp41)
Размер файла : 84,4 Мбайт
Продолжительность : 5 м. 48 с.
Общий поток : 2031 Кбит/сек
Программа кодирования : Lavf56.40.101

Видео
Идентификатор : 1
Формат : AVC
Формат/Информация : Advanced Video Codec
Профиль формата : High@L4
Параметр CABAC формата : Да
Параметр ReFrames формата : 3 кадра
Идентификатор кодека : avc1
Идентификатор кодека/Информация : Advanced Video Coding
Продолжительность : 5 м. 48 с.
Битрейт : 1900 Кбит/сек
Ширина : 1920 пикселей
Высота : 1080 пикселей
Соотношение сторон : 16:9
Режим частоты кадров : Переменный
Частота кадров : 23,976 (23976/1000) кадра/сек
Минимальная частота кадров : 23,974 кадра/сек
Максимальная частота кадров : 90000,000 кадров/сек
Цветовое пространство : YUV
Субдискретизация насыщенности : 4:2:0
Битовая глубина : 8 бит
Тип развёртки : Прогрессивная
Бит/(Пиксели*Кадры) : 0.038
Размер потока : 78,9 Мбайт (93%)
Цветовой диапазон : Limited
Основные цвета : BT.709
Характеристики трансфера : BT.709
Коэффициенты матрицы : BT.709

Аудио
Идентификатор : 2
Формат : AAC
Формат/Информация : Advanced Audio Codec
Профиль формата : LC
Идентификатор кодека : 40
Продолжительность : 5 м. 48 с.
Вид битрейта : Постоянный
Битрейт : 126 Кбит/сек
Каналы : 2 канала
Расположение каналов : Front: L R
Частота : 44,1 КГц
Частота кадров : 43,066 кадра/сек (1024 spf)
Метод сжатия : С потерями
Размер потока : 5,22 Мбайт (6%)
Default : Да
Alternate group : 1

Полное имя : Martin Garrix & Bebe Rexha - In the Name of Love MasterRip 1080p.ts
Формат : MPEG-TS
Размер файла : 149 Мбайт
Продолжительность : 3 м. 23 с.
Режим общего битрейта : Переменный
Общий поток : 6169 Кбит/сек

Видео
Идентификатор : 33 (0x21)
Идентификатор меню : 16727 (0x4157)
Формат : AVC
Формат/Информация : Advanced Video Codec
Профиль формата : High@L4
Параметр CABAC формата : Да
Параметр ReFrames формата : 4 кадра
Идентификатор кодека : 27
Продолжительность : 3 м. 23 с.
Максимальный битрейт : 5678 Кбит/сек
Ширина : 1920 пикселей
Высота : 1080 пикселей
Соотношение сторон : 16:9
Режим частоты кадров : Переменный
Цветовое пространство : YUV
Субдискретизация насыщенности : 4:2:0
Битовая глубина : 8 бит
Тип развёртки : Прогрессивная
Библиотека кодирования : x264 core 148
Настройки программы : cabac=1 / ref=4 / deblock=1:0:0 / analyse=0x3:0x133 / me=umh / subme=9 / psy=1 / psy_rd=1.00:0.00 / mixed_ref=1 / me_range=16 / chroma_me=1 / trellis=2 / 8x8dct=1 / cqm=0 / deadzone=21,11 / fast_pskip=1 / chroma_qp_offset=-2 / threads=34 / lookahead_threads=2 / sliced_threads=0 / nr=0 / decimate=1 / interlaced=0 / bluray_compat=0 / constrained_intra=0 / bframes=3 / b_pyramid=2 / b_adapt=2 / b_bias=0 / direct=3 / weightb=1 / open_gop=0 / weightp=2 / keyint=72 / keyint_min=37 / scenecut=0 / intra_refresh=0 / rc_lookahead=60 / rc=crf / mbtree=1 / crf=19.0 / qcomp=0.60 / qpmin=0 / qpmax=69 / qpstep=4 / vbv_maxrate=8000 / vbv_bufsize=24000 / crf_max=0.0 / nal_hrd=none / filler=0 / ip_ratio=1.40 / aq=1:1.00

Аудио
Идентификатор : 34 (0x22)
Идентификатор меню : 16727 (0x4157)
Формат : AAC
Формат/Информация : Advanced Audio Codec
Версия формата : Version 4
Профиль формата : LC
Режим смешивания : ADTS
Идентификатор кодека : 15
Продолжительность : 3 м. 23 с.
Вид битрейта : Переменный
Максимальный битрейт : 320 Кбит/сек
Каналы : 2 канала
Расположение каналов : Front: L R
Частота : 48,0 КГц
Частота кадров : 46,875 кадров/сек (1024 spf)
Метод сжатия : С потерями
Задержка видео : -83 мс.
Язык : English

Полное имя : Nico & Vinz - That's How You Know feat. Kid Ink & Bebe Rexha 1080p.mp4
Формат : MPEG-4
Профиль формата : Base Media
Идентификатор кодека : isom (isom/iso2/avc1/mp41)
Размер файла : 89,5 Мбайт
Продолжительность : 4 м. 4 с.
Общий поток : 3072 Кбит/сек
Программа кодирования : Lavf57.2.100

Видео
Идентификатор : 1
Формат : AVC
Формат/Информация : Advanced Video Codec
Профиль формата : High@L4
Параметр CABAC формата : Да
Параметр ReFrames формата : 3 кадра
Идентификатор кодека : avc1
Идентификатор кодека/Информация : Advanced Video Coding
Продолжительность : 4 м. 4 с.
Битрейт : 2940 Кбит/сек
Ширина : 1920 пикселей
Высота : 1080 пикселей
Соотношение сторон : 16:9
Режим частоты кадров : Переменный
Частота кадров : 23,976 (24000/1001) кадра/сек
Минимальная частота кадров : 23,974 кадра/сек
Максимальная частота кадров : 23,981 кадра/сек
Цветовое пространство : YUV
Субдискретизация насыщенности : 4:2:0
Битовая глубина : 8 бит
Тип развёртки : Прогрессивная
Бит/(Пиксели*Кадры) : 0.059
Размер потока : 85,7 Мбайт (96%)
Цветовой диапазон : Limited
Основные цвета : BT.709
Характеристики трансфера : BT.709
Коэффициенты матрицы : BT.709

Аудио
Идентификатор : 2
Формат : AAC
Формат/Информация : Advanced Audio Codec
Профиль формата : LC
Идентификатор кодека : 40
Продолжительность : 4 м. 4 с.
Вид битрейта : Постоянный
Битрейт : 126 Кбит/сек
Каналы : 2 канала
Расположение каналов : Front: L R
Частота : 44,1 КГц
Частота кадров : 43,066 кадра/сек (1024 spf)
Метод сжатия : С потерями
Размер потока : 3,66 Мбайт (4%)
Default : Да
Alternate group : 1
Бле́та Ре́кса (англ. Bleta Rexha; албанский вариант фамилии — Ре́джа) [ɾɛd͡ʒa]; род. 30 августа 1989, Бруклин, Нью-Йорк), более известная под своим сценическим именем Би́би Ре́кса (англ. Bebe Rexha), — американская певица и автор песен. Наибольшая известность пришла после выхода треков «Take Me Home» совместно с Cash Cash, «In the Name of Love» совместно с Мартином Гарриксом и «Hey Mama» совместно с Дэвидом Геттой. Ранее выступала вокалисткой в коллективе Black Cards, созданном Питом Вентцом, а также была соавтором хита Эминема и Рианны — «The Monster».

Официальный сайт

Страна: США
Продолжительность: 00:38:54

Файл
Кодек: MPEG-4, AVC
Качество: WEB-DLRip 720p, 1080p, 1440p
Видео: 1 572 Kbps - 40 Мбит/сек от 1280x720 до 2560x1440, 23,974 fps - 25 fps
Звук: AAC 126 Kbps - 320 Kbps, 44.1 kHz - 48.0 kHz



Скачать Bebe.Rexha.-.Сборник.клипов.[10.шт.].[2013-2017.WEB-DLRip].[720p.1080p.1440p].torrent без регистрации
Золото ЗОЛОТАЯ РАЗДАЧА! СКАЧАННОЕ НЕ ЗАСЧИТЫВАЕТСЯ! Золото
Дата: Зарегистрирован   [ Тип: внутренний ] Как тут cкачать?
MAGNET ссылка
MAGNET ссылка


Скачать .torrent

20 KB

Статус: проверено DHT
Скачан: торрент - 30 раз, раздача полностью - 11 раз
Размер: 1,79 GB
Оценка:  - (Голосов: 0)
Поблагодарили: 0
Поделиться ссылкой на эту раздачу с друзьями:
В контактеFacebookОдноклассникиTwitterLivejournalМой МирLiveinternet
 

 
Показать сообщения:    


Вы не можете начинать темы
Вы не можете отвечать на сообщения
Вы не можете редактировать свои сообщения
Вы не можете удалять свои сообщения
Вы не можете голосовать в опросах
Вы не можете прикреплять файлы к сообщениям
Вы можете скачивать файлы