Loading...
Error

Скачать Пассажиры / Passengers (Мортен Тильдум) [2016, фантастика, драма, мелодрама, приключения, BDRip] [1080p] [Dub Rus, Ukr (лицензия)]+3x[AVO]+[Eng]+[Sub Rus, Eng, Ukr] торрент без регистрации

Статистика раздачи
Размер:  17,64 GB   |    Скачан:  1700 раз
Сидов:  1  [  0 KB/s  ]  
 
 
 
Автор Сообщение

МихаНЕзатор

[] 

Пассажиры / Passengers


Страна: США
Производство: Columbia Pictures, LStar Capital, Original Film, Village Roadshow Pictures
Год выпуска: 2016
Жанр: фантастика, драма, мелодрама, приключения
Режиссер: Мортен Тильдум
Автор сценария: Джон Спэйтс

В ролях: Дженнифер Лоуренс, Крис Пратт, Майкл Шин, Энди Гарсиа, Лоренс Фишбёрн, Джейми Соричелли, Кимберли Баттиста, Аврора Перрино

Описание: Космический корабль с 5,000 пассажиров на борту, погруженных на время полета в искусственный сон, держит курс на планету, которая станет для них новым домом. Всё идет по плану, но из-за сбоя системы двое пассажиров неожиданно просыпаются и понимают, что до конечного пункта путешествия — 90 лет пути, и им суждено остаток жизни провести вдвоем в роскошных интерьерах корабля, оснащенного по последнему слову техники. Постепенно Джима и Аврору начинает непреодолимо тянуть друг к другу, но корабль попадает в беду, и теперь в их руках — жизнь и судьба всех обитателей корабля...

Дата премьеры (мир): 21 декабря 2016
Дата премьеры (РФ): 22 декабря 2016, «WDSSPR»



Продолжительность: 01:56:09
Перевод: Профессиональный (полное дублирование), авторский
Субтитры: Русские, английские, украинские

Файл
Файл
Кодек: MPEG-4 AVC
Качество: BDRip 1080
Видео: 12900 Кбит/с, 1920x804, 23.976 Кадр/с

Аудио 1: Русский (DTS, 6 ch, 1509 Кбит/с) - Дубляж
Аудио 2: Русский (AC3, 6 ch, 640 Кбит/с) - Дубляж
Аудио 3: Украинский (AC3, 6 ch, 640 Кбит/с) - Дубляж
Аудио 4: Русский (DTS, 6 ch, 1509 Кбит/с) - Авторский (Назаров)
Аудио 5: Русский (DTS, 6 ch, 1509 Кбит/с) - Авторский (Сербин)
Аудио 6: Русский (DTS, 6 ch, 1509 Кбит/с) - Авторский (Смирнов)
Аудио 7: Английский (DTS, 6 ch, 1509 Кбит/с) - Оригинал

АНОНСЫ ПОПУЛЯРНЫХ РАЗДАЧ


Торрент обновлён, улучшен звук, добавлены авторские переводы!

Общее
Уникальный идентификатор : 211876916437400579825409088009813413916 (0x9F6602818A37AB75BF6434B62FF0D01C)
Полное имя : D:\РЕМУКС!!!!!\Пассажиры. BDRip.1080p..mkv
Формат : Matroska
Версия формата : Version 4 / Version 2
Размер файла : 17,6 Гбайт
Продолжительность : 1 ч. 56 м.
Общий поток : 21,7 Мбит/сек
Название фильма : Пассажиры. BDRip.1080p.thx:SPOMOPS
Дата кодирования : UTC 2018-02-11 12:42:16
Программа кодирования : mkvmerge v6.1.0 ('Old Devil') built on Mar 4 2013 09:10:42
Библиотека кодирования : libebml v1.3.0 + libmatroska v1.4.0

Видео
Идентификатор : 1
Формат : AVC
Формат/Информация : Advanced Video Codec
Профиль формата : High@L4.1
Настройки формата : CABAC / 5 Ref Frames
Параметр CABAC формата : Да
Параметр RefFrames формата : 5 кадров
Идентификатор кодека : V_MPEG4/ISO/AVC
Продолжительность : 1 ч. 56 м.
Битрейт : 12,5 Мбит/сек
Ширина : 1920 пикселей
Высота : 804 пикселя
Соотношение сторон : 2,40:1
Режим частоты кадров : Постоянный
Частота кадров : 23,976 (24000/1001) кадра/сек
Цветовое пространство : YUV
Субдискретизация насыщенности : 4:2:0
Битовая глубина : 8 бит
Тип развёртки : Прогрессивная
Бит/(Пиксели*Кадры) : 0.337
Размер потока : 10,1 Гбайт (57%)
Библиотека кодирования : x264 core 146 r2538 121396c
Настройки программы : cabac=1 / ref=5 / deblock=1:-3:-3 / analyse=0x3:0x133 / me=umh / subme=10 / psy=1 / psy_rd=1.00:0.00 / mixed_ref=1 / me_range=32 / chroma_me=1 / trellis=2 / 8x8dct=1 / cqm=0 / deadzone=21,11 / fast_pskip=0 / chroma_qp_offset=-2 / threads=6 / lookahead_threads=1 / sliced_threads=0 / nr=0 / decimate=0 / interlaced=0 / bluray_compat=0 / constrained_intra=0 / bframes=8 / b_pyramid=2 / b_adapt=2 / b_bias=0 / direct=3 / weightb=1 / open_gop=0 / weightp=2 / keyint=250 / keyint_min=23 / scenecut=40 / intra_refresh=0 / rc=crf / mbtree=0 / crf=15.2 / qcomp=0.60 / qpmin=0 / qpmax=69 / qpstep=4 / ip_ratio=1.40 / pb_ratio=1.30 / aq=3:0.85 / zones=26341,26473,crf=12.8/86036,86231,crf=13/116025,116145,crf=12.8
Язык : English
Default : Да
Forced : Нет

Аудио #1
Идентификатор : 2
Формат : DTS
Формат/Информация : Digital Theater Systems
Идентификатор кодека : A_DTS
Продолжительность : 1 ч. 56 м.
Вид битрейта : Постоянный
Битрейт : 1509 Кбит/сек
Каналы : 6 каналов
Расположение каналов : Front: L C R, Side: L R, LFE
Частота : 48,0 КГц
Частота кадров : 93,750 кадра/сек (512 SPF)
Битовая глубина : 24 бит
Метод сжатия : С потерями
Размер потока : 1,22 Гбайт (7%)
Заголовок : Русский DTS - Дубляж
Язык : Russian
Default : Да
Forced : Нет

Аудио #2
Идентификатор : 3
Формат : AC-3
Формат/Информация : Audio Coding 3
Идентификатор кодека : A_AC3
Продолжительность : 1 ч. 56 м.
Вид битрейта : Постоянный
Битрейт : 640 Кбит/сек
Каналы : 6 каналов
Расположение каналов : Front: L C R, Side: L R, LFE
Частота : 48,0 КГц
Частота кадров : 31,250 кадров/сек (1536 SPF)
Битовая глубина : 16 бит
Метод сжатия : С потерями
Размер потока : 532 Мбайт (3%)
Заголовок : Русский ас3 - Дубляж
Язык : Russian
ServiceKind/String : Complete Main
Default : Нет
Forced : Нет

Аудио #3
Идентификатор : 4
Формат : DTS
Формат/Информация : Digital Theater Systems
Идентификатор кодека : A_DTS
Продолжительность : 1 ч. 56 м.
Вид битрейта : Постоянный
Битрейт : 1509 Кбит/сек
Каналы : 6 каналов
Расположение каналов : Front: L C R, Side: L R, LFE
Частота : 48,0 КГц
Частота кадров : 93,750 кадра/сек (512 SPF)
Битовая глубина : 16 бит
Метод сжатия : С потерями
Размер потока : 1,22 Гбайт (7%)
Заголовок : Русский DTS - АП (Назаров)
Язык : Russian
Default : Нет
Forced : Нет

Аудио #4
Идентификатор : 5
Формат : DTS
Формат/Информация : Digital Theater Systems
Идентификатор кодека : A_DTS
Продолжительность : 1 ч. 56 м.
Вид битрейта : Постоянный
Битрейт : 1509 Кбит/сек
Каналы : 6 каналов
Расположение каналов : Front: L C R, Side: L R, LFE
Частота : 48,0 КГц
Частота кадров : 93,750 кадра/сек (512 SPF)
Битовая глубина : 16 бит
Метод сжатия : С потерями
Размер потока : 1,22 Гбайт (7%)
Заголовок : Русский DTS - АП (Сербин)
Язык : Russian
Default : Нет
Forced : Нет

Аудио #5
Идентификатор : 6
Формат : DTS
Формат/Информация : Digital Theater Systems
Идентификатор кодека : A_DTS
Продолжительность : 1 ч. 56 м.
Вид битрейта : Постоянный
Битрейт : 1509 Кбит/сек
Каналы : 6 каналов
Расположение каналов : Front: L C R, Side: L R, LFE
Частота : 48,0 КГц
Частота кадров : 93,750 кадра/сек (512 SPF)
Битовая глубина : 24 бит
Метод сжатия : С потерями
Размер потока : 1,22 Гбайт (7%)
Заголовок : Русский DTS - АП (Смирнов)
Язык : Russian
Default : Нет
Forced : Нет

Аудио #6
Идентификатор : 7
Формат : AC-3
Формат/Информация : Audio Coding 3
Идентификатор кодека : A_AC3
Продолжительность : 1 ч. 56 м.
Вид битрейта : Постоянный
Битрейт : 640 Кбит/сек
Каналы : 6 каналов
Расположение каналов : Front: L C R, Side: L R, LFE
Частота : 48,0 КГц
Частота кадров : 31,250 кадров/сек (1536 SPF)
Битовая глубина : 16 бит
Метод сжатия : С потерями
Размер потока : 532 Мбайт (3%)
Заголовок : Украинский ас3 - Дубляж
Язык : Ukrainian
ServiceKind/String : Complete Main
Default : Нет
Forced : Нет

Аудио #7
Идентификатор : 8
Формат : DTS
Формат/Информация : Digital Theater Systems
Идентификатор кодека : A_DTS
Продолжительность : 1 ч. 56 м.
Вид битрейта : Постоянный
Битрейт : 1509 Кбит/сек
Каналы : 6 каналов
Расположение каналов : Front: L C R, Side: L R, LFE
Частота : 48,0 КГц
Частота кадров : 93,750 кадра/сек (512 SPF)
Битовая глубина : 16 бит
Метод сжатия : С потерями
Размер потока : 1,22 Гбайт (7%)
Заголовок : Английский DTS - Оригинал
Язык : English
Default : Нет
Forced : Нет

Текст #1
Идентификатор : 9
Формат : UTF-8
Идентификатор кодека : S_TEXT/UTF8
Идентификатор кодека/Информация : UTF-8 Plain Text
Заголовок : Русские - Forced
Язык : Russian
Default : Да
Forced : Нет

Текст #2
Идентификатор : 10
Формат : UTF-8
Идентификатор кодека : S_TEXT/UTF8
Идентификатор кодека/Информация : UTF-8 Plain Text
Заголовок : Русские
Язык : Russian
Default : Нет
Forced : Нет

Текст #3
Идентификатор : 11
Формат : UTF-8
Идентификатор кодека : S_TEXT/UTF8
Идентификатор кодека/Информация : UTF-8 Plain Text
Заголовок : Украинские - Forced
Язык : Ukrainian
Default : Нет
Forced : Нет

Текст #4
Идентификатор : 12
Формат : UTF-8
Идентификатор кодека : S_TEXT/UTF8
Идентификатор кодека/Информация : UTF-8 Plain Text
Заголовок : Украинские
Язык : Ukrainian
Default : Нет
Forced : Нет

Текст #5
Идентификатор : 13
Формат : UTF-8
Идентификатор кодека : S_TEXT/UTF8
Идентификатор кодека/Информация : UTF-8 Plain Text
Заголовок : Английские
Язык : English
Default : Нет
Forced : Нет

Меню
00:00:00.000 : :00:00:00.000
00:07:04.674 : :00:07:04.674
00:14:38.211 : :00:14:38.211
00:20:33.649 : :00:20:33.649
00:25:06.338 : :00:25:06.338
00:30:30.662 : :00:30:30.662
00:40:47.987 : :00:40:47.987
00:50:23.020 : :00:50:23.020
00:57:28.945 : :00:57:28.945
01:02:54.813 : :01:02:54.813
01:10:47.160 : :01:10:47.160
01:17:48.664 : :01:17:48.664
01:25:17.029 : :01:25:17.029
01:31:45.041 : :01:31:45.041
01:37:53.242 : :01:37:53.242
01:42:18.549 : :01:42:18.549



Скачать Пассажиры.Passengers.(Мортен.Тильдум).[2016.фантастика.драма.мелодрама.приключения.BDRip].[1080p].[Dub.Rus.Ukr.(лицензия)]+3x[AVO]+[Eng]+[Sub.Rus.Eng.Ukr].torrent без регистрации
Золото ЗОЛОТАЯ РАЗДАЧА! СКАЧАННОЕ НЕ ЗАСЧИТЫВАЕТСЯ! Золото
Дата: Зарегистрирован   [ Тип: внутренний ] Как тут cкачать?
MAGNET ссылка
MAGNET ссылка


Скачать .torrent

89 KB

Статус: проверено DHT
Скачан: торрент - 1700 раз, раздача полностью - 95 раз
Размер: 17,64 GB
Оценка:  5 (Голосов: 14)
Поблагодарили: 53
Поделиться ссылкой на эту раздачу с друзьями:
В контактеFacebookОдноклассникиTwitterLivejournalМой МирLiveinternet
 

 

dmitrysti

[] 

Звук плавает с тихого на громкий.Чё за хрень?
 

Sun_Flow

[] 

dmitrysti писал(а):

Звук плавает с тихого на громкий.Чё за хрень?
Да, тоже заметил. Видимо потому, что корейская версия, на которую наложили дубляж только местами. И там, где не было замены - там звук отличается.
В общем, кривой самопал, а не лицензия. Ждём дальше
 
Показать сообщения:    


Вы не можете начинать темы
Вы не можете отвечать на сообщения
Вы не можете редактировать свои сообщения
Вы не можете удалять свои сообщения
Вы не можете голосовать в опросах
Вы не можете прикреплять файлы к сообщениям
Вы можете скачивать файлы