Loading...
Error

Скачать Монстр / No Such Thing (Хэл Хартли) [2001, фэнтези, драма, комедия, DVDRip] [MVO]+[Оригинал]+[Sub] торрент без регистрации

Статистика раздачи
Размер:  1,45 GB   |    Скачан:  9 раз
Сидов:  1  [  0 KB/s  ]  
 
 
 
Автор Сообщение

Marsianka

[] 

Монстр / No Such Thing (2001) DVDRip

Информация о фильме
Название: Монстр
Оригинальное название: No Such Thing
Год выхода: 2001
Жанр: фэнтези, драма, комедия
Режиссер: Хэл Хартли

В ролях: Сара Полли, Хелен Миррен, Джули Кристи, Роберт Джон Бёрк, Маргрет Акадоттир, Джули Андерсон, Анна Кристин Арнгримсдоттир, Илене Бергельсон, Гудрун Мария, Бьярнадоттир, Бесси Бьярнасон...

О фильме: Нью-йоркская журналистка, по имени Беатрис, отправляется в путешествие в экологически чистую Исландию на поиски своего пропавшего жениха. Но вместо суженого находит монстра, убившего его. В отличие от большинства сказочных чудищ, сильно пьющий монстр-отшельник, найденный героиней, оказывается одиноким существом в глубокой депрессии. Очарованная инфернальным шармом своего нового знакомого, и страстно желая ему помочь, Беатрис забирает монстра с собой в Нью-Йорк. В падком на сенсации «Большом Яблоке» заморское чудо-юдо становится знаменитостью номер один. Но лицемерное, бездушное, цивилизованное общество не может принять монстра. Единственное на что оно способно это… убить его.



Страна: США, Исландия
Продолжительность: 01:38:37
Перевод: Профессиональный (многоголосый закадровый), Оригинал (Английский)

Файл
Кодек: XviD
Качество: DVDRip
Видео: 704x416 (1.69:1), 25 fps, 1323 kbps, 0.181 bit/pixel
Аудио #1: 48 kHz, AC3 Dolby Digital, 3/2 (L,C,R,l,r) + LFE ch, ~384 kbps (Русский)
Аудио #2: 48 kHz, AC3 Dolby Digital, 3/2 (L,C,R,l,r) + LFE ch, ~384 kbps (Английский)
Субтитры: Русские (Внешние)
Семпл

&
Общее
Полное имя : D:TorrentNo Such Thing.2001.DVDRipNo Such Thing.2001.DVDRip.avi
Формат : AVI
Формат/Информация : Audio Video Interleave
Размер файла : 1,45 Гбайт
Продолжительность : 1 ч. 38 м.
Общий поток : 2105 Кбит/сек
Название фильма : Монстр / No Such Thing.2001.DVDRip rip by Rulya74
Программа кодирования : VirtualDubModRus 1.5.10.2 (build 2542/release)

Видео
Идентификатор : 0
Формат : MPEG-4 Visual
Профиль формата : Simple@L5
Параметр BVOP формата : Нет
Параметр QPel формата : Нет
Параметр GMC формата : Без точки перехода
Параметр матрицы формата : Default (H.263)
Идентификатор кодека : XVID
Идентификатор кодека/Подсказка : XviD
Продолжительность : 1 ч. 38 м.
Битрейт : 1323 Кбит/сек
Ширина : 704 пикселя
Высота : 416 пикселей
Соотношение сторон : 1,692
Частота кадров : 25,000 кадров/сек
Цветовое пространство : YUV
Субдискретизация насыщенности : 4:2:0
Битовая глубина : 8 бит
Тип развёртки : Прогрессивная
Метод сжатия : С потерями
Бит/(Пиксели*Кадры) : 0.181
Размер потока : 933 Мбайт (63%)
Библиотека кодирования : XviD 73

Аудио #1
Идентификатор : 1
Формат : AC-3
Формат/Информация : Audio Coding 3
Расширение режима : CM (complete main)
Параметр Endianness формата : Big
Идентификатор кодека : 2000
Продолжительность : 1 ч. 38 м.
Вид битрейта : Постоянный
Битрейт : 384 Кбит/сек
Каналы : 6 каналов
Расположение каналов : Front: L C R, Side: L R, LFE
Частота : 48,0 КГц
Битовая глубина : 16 бит
Метод сжатия : С потерями
Размер потока : 271 Мбайт (18%)
Выравнивание : Разделение по промежуткам
Продолжительность промежутка : 40 мс. (1,00 видеокадр)
Время предзагрузки промежутка : 500 мс.
Заголовок : Профессиональный (многоголосый закадровый)

Аудио #2
Идентификатор : 2
Формат : AC-3
Формат/Информация : Audio Coding 3
Расширение режима : CM (complete main)
Параметр Endianness формата : Big
Идентификатор кодека : 2000
Продолжительность : 1 ч. 38 м.
Вид битрейта : Постоянный
Битрейт : 384 Кбит/сек
Каналы : 6 каналов
Расположение каналов : Front: L C R, Side: L R, LFE
Частота : 48,0 КГц
Битовая глубина : 16 бит
Метод сжатия : С потерями
Размер потока : 271 Мбайт (18%)
Выравнивание : Разделение по промежуткам
Продолжительность промежутка : 40 мс. (1,00 видеокадр)
Время предзагрузки промежутка : 500 мс.
Заголовок : Оригинал (Английский)



Скачать Монстр.No.Such.Thing.(Хэл.Хартли).[2001.фэнтези.драма.комедия.DVDRip].[MVO]+[Оригинал]+[Sub].torrent без регистрации
Золото ЗОЛОТАЯ РАЗДАЧА! СКАЧАННОЕ НЕ ЗАСЧИТЫВАЕТСЯ! Золото
Дата: Зарегистрирован   [ Тип: внутренний ] Как тут cкачать?
MAGNET ссылка
MAGNET ссылка


Скачать .torrent

16 KB

Статус: проверено DHT
Скачан: торрент - 9 раз, раздача полностью - 4 раз
Размер: 1,45 GB
Оценка:  - (Голосов: 0)
Поблагодарили: 1
Поделиться ссылкой на эту раздачу с друзьями:
В контактеFacebookОдноклассникиTwitterLivejournalМой МирLiveinternet
 

 
Показать сообщения:    


Вы не можете начинать темы
Вы не можете отвечать на сообщения
Вы не можете редактировать свои сообщения
Вы не можете удалять свои сообщения
Вы не можете голосовать в опросах
Вы не можете прикреплять файлы к сообщениям
Вы можете скачивать файлы