Loading...
Error

Скачать Пассажиры / Passengers (Мортен Тильдум) [2016, фантастика, драма, мелодрама, приключения, BDRemux] [1080p] [Dub Rus, Ukr (лицензия)]+2x[AVO]+[Eng]+[Sub Rus, Eng] торрент без регистрации

Статистика раздачи
Размер:  32,64 GB   |    Скачан:  181 раз
Сидов:  1  [  0 KB/s  ]  
 
 
 
Автор Сообщение

МихаНЕзатор

[] 

Информация о фильме
Название: Пассажиры
Оригинальное название: Passengers
Год выхода: 2016
Жанр: Фантастика, драма, мелодрама, приключения
Режиссер: Мортен Тильдум

В ролях: Дженнифер Лоуренс, Крис Прэтт, Майкл Шин, Лоуренс Фишборн, Энди Гарсиа, Винс Фостер, Кара Мишель Уайлдер, Конор Брофи, Джули Серда, Аврора Перрино

О фильме: Космический корабль бороздит просторы большого космоса, перевозя несколько тысяч пассажиров в светлое будущее. Инженер-механик Джим Престон внезапно просыпается в камере гибернации на каких-то жалких 90 лет раньше положенного срока. Вдоволь повеселившись в гордом одиночестве и наслаждаясь бесплатным баром в течение года, он таки решается дополнительно разбудить самую красивую пассажирку - Аврору, чтобы слиться с ней в романтичном поцелуе на фоне красного гиганта. Все идет по накатанной - после серии образцово-показательных походов в ресторан и торжественного вручения букета из миллиона алых роз инженер познает все радости совместной жизни, окрашенной в цвета нежности и любовной истомы. Страсти накаляются электропаяльником, но тут звездолет дает сбои по нарастающей в наиболее неожиданных местах, грозясь в любой момент свалиться в штопор.



Страна: США
Студия: Columbia Pictures
Продолжительность: 01:56:10
Перевод: профессиональный (дублированный), авторский (одноголосый)
Субтитры: русские, английские

Формат: MKV
Качество: BDRemux 1080p
Видео: MPEG-4 AVC Video / 26866 kbps / 1920x1080 / 23,976 fps
Звук:
Аудио 1: Russian / Dolby Digital Audio / 5.1 / 48 kHz / 640 kbps - Дубляж (Blu-Ray)
Аудио 2: Russian / DTS-HD Master Audio / 7.1 / 48 kHz / 4104 kbps - Дубляж (ред. Sergesha)
Аудио 3: Russian / DTS-HD Master Audio / 5.1 / 48 kHz / 2128 kbps - Авторский (Сербин)
Аудио 4: Russian / DTS-HD Master Audio / 5.1 / 48 kHz / 3711 kbps - Авторский (Смирнов)
Аудио 5: Ukrainian / Dolby Digital Audio / 5.1 / 48 kHz / 640 kbps - Дубляж (Blu-Ray)
Аудио 6: English / DTS-HD Master Audio / 5.1 / 48 kHz / 2119 kbps - Оригинал (Английский)

АНОНСЫ ПОПУЛЯРНЫХ РАЗДАЧ


Торрент обновлён, улучшен звук, добавлены авторские переводы!
Format : Matroska
Format version : Version 2
File size : 32.6 GiB
Duration : 1 h 56 min
Overall bit rate mode : Variable
Overall bit rate : 40.2 Mb/s
Encoded date : UTC 2018-02-10 15:59:54
Writing application : mkvmerge v19.0.0 ('Brave Captain') 64-bit
Writing library : libebml v1.3.5 + libmatroska v1.4.8

Video
ID : 1
Format : AVC
Format/Info : Advanced Video Codec
Format profile : High@L4.1
Format settings, CABAC : Yes
Format settings, RefFrames : 2 frames
Format settings, GOP : M=1, N=10
Codec ID : V_MPEG4/ISO/AVC
Duration : 1 h 56 min
Bit rate mode : Variable
Bit rate : 26.9 Mb/s
Width : 1 920 pixels
Height : 1 080 pixels
Display aspect ratio : 16:9
Frame rate mode : Constant
Frame rate : 23.976 (24000/1001) FPS
Color space : YUV
Chroma subsampling : 4:2:0
Bit depth : 8 bits
Scan type : Progressive
Bits/(Pixel*Frame) : 0.540
Stream size : 21.8 GiB (67%)
Title : Passengers (2016) BDRemux 1080p
Default : Yes
Forced : No

Audio #1
ID : 2
Format : AC-3
Format/Info : Audio Coding 3
Format settings, Endianness : Big
Codec ID : A_AC3
Duration : 1 h 56 min
Bit rate mode : Constant
Bit rate : 640 kb/s
Channel(s) : 6 channels
Channel positions : Front: L C R, Side: L R, LFE
Sampling rate : 48.0 kHz
Frame rate : 31.250 FPS (1536 SPF)
Bit depth : 16 bits
Compression mode : Lossy
Stream size : 532 MiB (2%)
Title : Дубляж
Language : Russian
Service kind : Complete Main
Default : Yes
Forced : No

Audio #2
ID : 3
Format : DTS
Format/Info : Digital Theater Systems
Format profile : MA / Core
Mode : 16
Format settings, Endianness : Big
Codec ID : A_DTS
Duration : 1 h 56 min
Bit rate mode : Variable / Constant
Bit rate : 4 104 kb/s / 1 509 kb/s
Channel(s) : 8 channels / 6 channels
Channel positions : Front: L C R, Side: L R, Back: L R, LFE / Front: L C R, Side: L R, LFE
Sampling rate : 48.0 kHz
Frame rate : 93.750 FPS (512 SPF)
Bit depth : 24 bits
Compression mode : Lossless / Lossy
Stream size : 3.33 GiB (10%)
Title : Дубляж (Sergesha)
Language : Russian
Default : No
Forced : No

Audio #3
ID : 4
Format : DTS
Format/Info : Digital Theater Systems
Format profile : MA / Core
Mode : 16
Format settings, Endianness : Big
Codec ID : A_DTS
Duration : 1 h 56 min
Bit rate mode : Variable / Constant
Bit rate : 2 128 kb/s / 1 509 kb/s
Channel(s) : 6 channels
Channel positions : Front: L C R, Side: L R, LFE
Sampling rate : 48.0 kHz
Frame rate : 93.750 FPS (512 SPF)
Bit depth : 16 bits
Compression mode : Lossless / Lossy
Stream size : 1.73 GiB (5%)
Title : Сербин
Language : Russian
Default : No
Forced : No

Audio #4
ID : 5
Format : DTS
Format/Info : Digital Theater Systems
Format profile : MA / Core
Mode : 16
Format settings, Endianness : Big
Codec ID : A_DTS
Duration : 1 h 56 min
Bit rate mode : Variable / Constant
Bit rate : 3 711 kb/s / 1 509 kb/s
Channel(s) : 6 channels
Channel positions : Front: L C R, Side: L R, LFE
Sampling rate : 48.0 kHz
Frame rate : 93.750 FPS (512 SPF)
Bit depth : 24 bits
Compression mode : Lossless / Lossy
Stream size : 3.01 GiB (9%)
Title : Смирнов
Language : Russian
Default : No
Forced : No

Audio #5
ID : 6
Format : AC-3
Format/Info : Audio Coding 3
Format settings, Endianness : Big
Codec ID : A_AC3
Duration : 1 h 56 min
Bit rate mode : Constant
Bit rate : 640 kb/s
Channel(s) : 6 channels
Channel positions : Front: L C R, Side: L R, LFE
Sampling rate : 48.0 kHz
Frame rate : 31.250 FPS (1536 SPF)
Bit depth : 16 bits
Compression mode : Lossy
Stream size : 532 MiB (2%)
Title : Дубляж
Language : Ukrainian
Service kind : Complete Main
Default : No
Forced : No

Audio #6
ID : 7
Format : DTS
Format/Info : Digital Theater Systems
Format profile : MA / Core
Mode : 16
Format settings, Endianness : Big
Codec ID : A_DTS
Duration : 1 h 56 min
Bit rate mode : Variable / Constant
Bit rate : 2 119 kb/s / 1 509 kb/s
Channel(s) : 6 channels
Channel positions : Front: L C R, Side: L R, LFE
Sampling rate : 48.0 kHz
Frame rate : 93.750 FPS (512 SPF)
Bit depth : 16 bits
Compression mode : Lossless / Lossy
Stream size : 1.72 GiB (5%)
Title : Оригинал
Language : English
Default : No
Forced : No

Text #1
ID : 8
Format : UTF-8
Codec ID : S_TEXT/UTF8
Codec ID/Info : UTF-8 Plain Text
Duration : 1 h 54 min
Bit rate : 1 b/s
Count of elements : 27
Stream size : 1.19 KiB (0%)
Title : Forced
Language : Russian
Default : Yes
Forced : No

Text #2
ID : 9
Format : UTF-8
Codec ID : S_TEXT/UTF8
Codec ID/Info : UTF-8 Plain Text
Duration : 1 h 54 min
Bit rate : 68 b/s
Count of elements : 1107
Stream size : 57.6 KiB (0%)
Title : Full
Language : Russian
Default : No
Forced : No

Text #3
ID : 10
Format : UTF-8
Codec ID : S_TEXT/UTF8
Codec ID/Info : UTF-8 Plain Text
Duration : 1 h 45 min
Bit rate : 49 b/s
Count of elements : 1280
Stream size : 38.1 KiB (0%)
Title : Full
Language : English
Default : No
Forced : No

Menu
00:00:00.000 : en:Chapter 1
00:07:04.674 : en:Chapter 2
00:14:38.210 : en:Chapter 3
00:20:33.649 : en:Chapter 4
00:25:06.338 : en:Chapter 5
00:30:30.662 : en:Chapter 6
00:40:47.987 : en:Chapter 7
00:50:23.020 : en:Chapter 8
00:57:28.945 : en:Chapter 9
01:02:54.812 : en:Chapter 10
01:10:47.159 : en:Chapter 11
01:17:48.664 : en:Chapter 12
01:25:17.028 : en:Chapter 13
01:31:45.041 : en:Chapter 14
01:37:53.242 : en:Chapter 15
01:42:18.549 : en:Chapter 16

[/url]
Дублированная дорожка DTS-HD MA выполнена из оригинальной Dolby Atmos/TrueHD 7.1 и дублированной DD дорожек путём замены всех участков с оригинальной речью, отголосками и эхом на аналогичные с дублированной дорожки во всех каналах.



Скачать Пассажиры.Passengers.(Мортен.Тильдум).[2016.фантастика.драма.мелодрама.приключения.BDRemux].[1080p].[Dub.Rus.Ukr.(лицензия)]+2x[AVO]+[Eng]+[Sub.Rus.Eng].torrent без регистрации
Золото ЗОЛОТАЯ РАЗДАЧА! СКАЧАННОЕ НЕ ЗАСЧИТЫВАЕТСЯ! Золото
Дата: Зарегистрирован   [ Тип: внутренний ] Как тут cкачать?
MAGNET ссылка
MAGNET ссылка


Скачать .torrent

164 KB

Статус: проверено DHT
Скачан: торрент - 181 раз, раздача полностью - 6 раз
Размер: 32,64 GB
Оценка:  5 (Голосов: 3)
Поблагодарили: 9
Поделиться ссылкой на эту раздачу с друзьями:
В контактеFacebookОдноклассникиTwitterLivejournalМой МирLiveinternet
 

 
Показать сообщения:    


Вы не можете начинать темы
Вы не можете отвечать на сообщения
Вы не можете редактировать свои сообщения
Вы не можете удалять свои сообщения
Вы не можете голосовать в опросах
Вы не можете прикреплять файлы к сообщениям
Вы можете скачивать файлы