Loading...
Error

Скачать Миллиарды / Billions (Сезон 01) (Нил Бёргер) [2016, криминал, драма, BDRip] [DVO] (Кубик в Кубе) торрент без регистрации

Статистика раздачи
Размер:  13,68 GB   |    Скачан:  102 раза
Сидов:  1  [  0 KB/s  ]  

 
 
 
Автор Сообщение

leon030982

[] 



Миллиарды / Billions



Год выпуска: 2016
Страна: США
Жанр: криминал, драма
Продолжительность: 1х~ 01:00:00
Перевод: Профессиональный (двухголосый) [Кубик в Кубе]
Субтитры: нет

Создатель сериала:
Режиссёры: Нил Бёргер, Джеймс Фоули, Скотт Хорнбэкер

В ролях: Дэмиэн Льюис, Пол Джаматти, Мэгги Сифф, Малин Акерман, Тоби Леонард Мур, Дэвид Костабайл, Дэниэл К. Исаак, Фрэнк Хартс...

Описание: В мире власти и больших денег, в самом сердце Нью- Йорка, вовсю идет противостояние амбициозного финансиста с Уолл-стрит Бобби Аксельрода и принципиального федерального прокурора Чака Родса.



Качество: BDRip
Формат: AVI
Видео: AVI, 720x400 (1.80:1), 23.976 fps, XviD MPEG-4 ~1999 kbps avg, 0.29 bit/pixel
Аудио Rus: 48 kHz, AC3 Dolby Digital, 3/2 (L,C,R,l,r) + LFE ch, 384.00 kbps
Аудио Eng: 48 kHz, AC3 Dolby Digital, 3/2 (L,C,R,l,r) + LFE ch, 384.00 kbps

Озвучка: Кубик в Кубе
Работа со звуком: messafan
Перевод: Василий Мерзляков
General
Complete name : E:\Billions Season 1 CasStudio.TV\Billions.s01e02.rus.eng.CasStudio.TV.avi
Format : AVI
Format/Info : Audio Video Interleave
File size : 1.06 GiB
Duration : 54mn 23s
Overall bit rate : 2 781 Kbps
Writing application : VirtualDubMod 1.5.10.2 (build 2540/release)
Writing library : VirtualDubMod build 2540/release

Video
ID : 0
Format : MPEG-4 Visual
Format profile : Advanced Simple@L5
Format settings, BVOP : 1
Format settings, QPel : No
Format settings, GMC : No warppoints
Format settings, Matrix : Default (MPEG)
Codec ID : XVID
Codec ID/Hint : XviD
Duration : 54mn 23s
Bit rate : 1 892 Kbps
Width : 720 pixels
Height : 400 pixels
Display aspect ratio : 16:9
Frame rate : 23.976 fps
Color space : YUV
Chroma subsampling : 4:2:0
Bit depth : 8 bits
Scan type : Progressive
Compression mode : Lossy
Bits/(Pixel*Frame) : 0.274
Stream size : 736 MiB (68%)
Writing library : XviD 73

Audio #1
ID : 1
Format : AC-3
Format/Info : Audio Coding 3
Mode extension : CM (complete main)
Format settings, Endianness : Big
Codec ID : 2000
Duration : 54mn 23s
Bit rate mode : Constant
Bit rate : 384 Kbps
Channel(s) : 6 channels
Channel positions : Front: L C R, Side: L R, LFE
Sampling rate : 48.0 KHz
Compression mode : Lossy
Stream size : 149 MiB (14%)
Alignment : Split accross interleaves

Audio #2
ID : 2
Format : AC-3
Format/Info : Audio Coding 3
Mode extension : CM (complete main)
Format settings, Endianness : Big
Codec ID : 2000
Duration : 54mn 23s
Bit rate mode : Constant
Bit rate : 384 Kbps
Channel(s) : 6 channels
Channel positions : Front: L C R, Side: L R, LFE
Sampling rate : 48.0 KHz
Compression mode : Lossy
Stream size : 149 MiB (14%)
Alignment : Split accross interleaves




Скачать Миллиарды.Billions.(Сезон.01).(Нил.Бёргер).[2016.криминал.драма.BDRip].[DVO].(Кубик.в.Кубе).torrent без регистрации
Золото ЗОЛОТАЯ РАЗДАЧА! СКАЧАННОЕ НЕ ЗАСЧИТЫВАЕТСЯ! Золото
Дата: Зарегистрирован   [ Тип: внутренний ] Как тут cкачать?
MAGNET ссылка
MAGNET ссылка


Скачать .torrent

36 KB

Статус: проверено DHT
Скачан: торрент - 102 раз, раздача полностью - 60 раз
Размер: 13,68 GB
Оценка:  - (Голосов: 0)
Поблагодарили: 0
Поделиться ссылкой на эту раздачу с друзьями:
В контактеFacebookОдноклассникиTwitterLivejournalМой МирLiveinternet
 

 
Показать сообщения:    


Вы не можете начинать темы
Вы не можете отвечать на сообщения
Вы не можете редактировать свои сообщения
Вы не можете удалять свои сообщения
Вы не можете голосовать в опросах
Вы не можете прикреплять файлы к сообщениям
Вы можете скачивать файлы