Loading...
Error

Скачать Полет Феникса / Flight of the Phoenix (Джон Мур) [2004, боевик, триллер, драма, приключения, BDRip-AVC] [Dub]+[MVO]x2+[DVO]+[VO]+[Оригинал]+[Sub]x2 торрент без регистрации

Статистика раздачи
Размер:  2,91 GB   |    Скачан:  19 раз
Сидов:  1  [  0 KB/s  ]  
 
 
 
Автор Сообщение

Marsianka

[] 

Полет Феникса / Flight of the Phoenix (2004) BDRip-AVC
от
HQCLUB



Информация о фильме:
Название: Полет Феникса
Оригинальное название: Flight of the Phoenix
Год выхода: 2004
Жанр: боевик, триллер, драма, приключения
Режиссер: Джон Мур
В ролях: Дэннис Куэйд, Тайриз Гибсон, Джованни Рибизи, Миранда Отто, Тони Каррен, Стики Фингаз, Джейкоб Варгас, Хью Лори, Скотт Майкл Кэмпбелл

О фильме: Действие фильма разворачивается в монгольской пустыне, в самом сердце которой терпит крушение грузовой самолет, перевозящий нефтяных вахтовиков. Они возвращались с месторождения, которое перестало приносить прибыль и было закрыто. Решение компании выполнял командир команды самолета.

Таким образом, назад он вез озлобленных на него и компанию безработных нефтяников. После крушения, поняв, что помощи ждать неоткуда, команда решает самостоятельно построить самолет и долететь до Пекина, пока жажда, солнце и противоречия между ними не доконали их окончательно…

«И надежда восстанет из пепла»




Релиз от -
Автор рипа: Elheym

Выпущено: США, 20th Century Fox Film Corporation, Aldrich Group, Davis Entertainment, Optional Pictures
Продолжительность: 01:52:57
Перевод: профессиональный (полное дублирование) + оригинал (английский)
Субтитры: русские (полные), английские (полные SDH)
Главы: присутствуют, сохранены оригинальные

Дополнительные аудиодорожки:
+ Профессиональный (многоголосый, закадровый), Гемини Киномир
+ Профессиональный (двухголосый, закадровый), Tycoon Studio
+ Одноголосый (закадровый), Алексей Попов
+ Профессиональный (многоголосый, закадровый), телеканал «1+1»
Файл:
Формат: MKV
Качество: BDRip-AVC (источник: lizing48 / BDRemux / 1080p)
Видео: 1024x436 (2.35:1), 23.976 fps, MPEG-4 AVC, ~2916 kbps avg, 0.272 bit/pixel
Аудио #1: 48 kHz, AC3 Dolby Digital, 3/2 (L,C,R,l,r) + LFE ch, ~384 kbps (DUB)
Аудио #2: 48 kHz, AC3 Dolby Digital, 3/2 (L,C,R,l,r) + LFE ch, ~384 kbps (ENG)
Аудио #3: 48 kHz, AC3 Dolby Digital, 3/2 (L,C,R,l,r) + LFE ch, ~384 kbps (MVO.GEMINI) (отдельно)
Аудио #4: 48 kHz, AC3 Dolby Digital, 3/2 (L,C,R,l,r) + LFE ch, ~384 kbps (DVO.TycoonStudio) (отдельно)
Аудио #5: 48 kHz, AC3 Dolby Digital, 3/2 (L,C,R,l,r) + LFE ch, ~384 kbps (VO.POPOV) (отдельно)
Аудио #6: 48 kHz, AC3 Dolby Digital, 1/0 (C), ~192 kbps (MVO.UKR.1+1) (отдельно)
Размер: 2.90 GB
Сэмпл: скачать

Уникальный идентификатор : 212620101493253441072628959075885789859 (0x9FF5245BB6E44BAD934BCE5C332E32A3)
Полное имя : Flight.of.the.Phoenix.2004.DUAL.BDRip-AVC.x264.AC3.-HQCLUB.mkv
Формат : Matroska
Версия формата : Version 2
Размер файла : 2,91 Гбайт
Продолжительность : 1 ч. 52 м.
Общий поток : 3685 Кбит/сек
Дата кодирования : UTC 2014-07-09 15:42:42
Программа кодирования : mkvmerge v5.2.0 ('I can't explain') built on Dec 18 2011 18:12:03
Библиотека кодирования : libebml v1.2.3 + libmatroska v1.3.0

Видео
Идентификатор : 1
Формат : AVC
Формат/Информация : Advanced Video Codec
Профиль формата : High@L4.1
Параметр CABAC формата : Да
Параметр ReFrames формата : 16 кадров
Идентификатор кодека : V_MPEG4/ISO/AVC
Продолжительность : 1 ч. 52 м.
Битрейт : 2916 Кбит/сек
Ширина : 1024 пикселя
Высота : 436 пикселей
Соотношение сторон : 2,35:1
Режим частоты кадров : Постоянный
Частота кадров : 23,976 кадра/сек
Цветовое пространство : YUV
Субдискретизация насыщенности : 4:2:0
Битовая глубина : 8 бит
Тип развёртки : Прогрессивная
Бит/(Пиксели*Кадры) : 0.272
Размер потока : 2,24 Гбайт (77%)
Заголовок : Полет Феникса / Flight of the Phoenix (2004) BDRip-AVC by HQCLUB [Elheym]
Библиотека кодирования : x264 core 142 r2431 ac76440
Настройки программы : cabac=1 / ref=16 / deblock=1:-3:-2 / analyse=0x3:0x113 / me=umh / subme=11 / psy=1 / psy_rd=1.00:0.00 / mixed_ref=1 / me_range=32 / chroma_me=1 / trellis=2 / 8x8dct=1 / cqm=0 / deadzone=21,11 / fast_pskip=1 / chroma_qp_offset=-4 / threads=6 / lookahead_threads=1 / sliced_threads=0 / nr=0 / decimate=1 / interlaced=0 / bluray_compat=0 / constrained_intra=0 / bframes=13 / b_pyramid=2 / b_adapt=2 / b_bias=0 / direct=3 / weightb=1 / open_gop=0 / weightp=2 / keyint=240 / keyint_min=23 / scenecut=40 / intra_refresh=0 / rc_lookahead=40 / rc=2pass / mbtree=1 / bitrate=2916 / ratetol=1.0 / qcomp=0.60 / qpmin=10 / qpmax=69 / qpstep=4 / cplxblur=20.0 / qblur=0.5 / vbv_maxrate=50000 / vbv_bufsize=62500 / nal_hrd=none / filler=0 / ip_ratio=1.40 / aq=1:0.90
Язык : English
Default : Да
Forced : Нет

Аудио #1
Идентификатор : 2
Формат : AC-3
Формат/Информация : Audio Coding 3
Расширение режима : CM (complete main)
Параметр Endianness формата : Big
Идентификатор кодека : A_AC3
Продолжительность : 1 ч. 52 м.
Вид битрейта : Постоянный
Битрейт : 384 Кбит/сек
Каналы : 6 каналов
Расположение каналов : Front: L C R, Side: L R, LFE
Частота : 48,0 КГц
Битовая глубина : 16 бит
Метод сжатия : С потерями
Размер потока : 310 Мбайт (10%)
Заголовок : АС3 5.1 @ 384 kbps - Dub
Язык : Russian
Default : Нет
Forced : Нет

Аудио #2
Идентификатор : 3
Формат : AC-3
Формат/Информация : Audio Coding 3
Расширение режима : CM (complete main)
Параметр Endianness формата : Big
Идентификатор кодека : A_AC3
Продолжительность : 1 ч. 52 м.
Вид битрейта : Постоянный
Битрейт : 384 Кбит/сек
Каналы : 6 каналов
Расположение каналов : Front: L C R, Side: L R, LFE
Частота : 48,0 КГц
Битовая глубина : 16 бит
Метод сжатия : С потерями
Размер потока : 310 Мбайт (10%)
Заголовок : АС3 5.1 @ 384 kbps - Original
Язык : English
Default : Нет
Forced : Нет

Текст #1
Идентификатор : 4
Формат : UTF-8
Идентификатор кодека : S_TEXT/UTF8
Идентификатор кодека/Информация : UTF-8 Plain Text
Заголовок : Full
Язык : Russian
Default : Нет
Forced : Нет

Текст #2
Идентификатор : 5
Формат : UTF-8
Идентификатор кодека : S_TEXT/UTF8
Идентификатор кодека/Информация : UTF-8 Plain Text
Заголовок : Full SDH
Язык : English
Default : Нет
Forced : Нет

Меню
00:00:00.000 : :Chapter 01
00:05:00.000 : :Chapter 02
00:10:00.000 : :Chapter 03
00:15:00.000 : :Chapter 04
00:20:00.000 : :Chapter 05
00:25:00.000 : :Chapter 06
00:30:00.000 : :Chapter 07
00:35:00.000 : :Chapter 08
00:40:00.000 : :Chapter 09
00:45:00.000 : :Chapter 10
00:50:00.000 : :Chapter 11
00:55:00.000 : :Chapter 12
01:00:00.000 : :Chapter 13
01:05:00.000 : :Chapter 14
01:10:00.000 : :Chapter 15
01:15:00.000 : :Chapter 16
01:20:00.000 : :Chapter 17
01:25:00.000 : :Chapter 18
01:30:00.000 : :Chapter 19
01:35:00.000 : :Chapter 20
01:40:00.000 : :Chapter 21
01:45:00.000 : :Chapter 22
01:50:00.000 : :Chapter 23

x264 [info]: frame I:1245 Avg QP:16.56 size: 68895
x264 [info]: frame P:34150 Avg QP:19.35 size: 26340
x264 [info]: frame B:127111 Avg QP:21.81 size: 10235

x264 [info]: consecutive B-frames: 2.3% 2.7% 9.2% 14.3% 14.9% 37.8% 7.6% 3.1% 2.5% 1.6% 1.0% 1.4% 0.4% 0.5% 0.2% 0.1% 0.4%

x264 [info]: ref P L0: 41.0% 11.3% 16.7% 7.0% 5.5% 4.1% 3.5% 2.0% 1.8% 1.4% 1.3% 1.0% 1.0% 0.8% 0.9% 0.6%
x264 [info]: ref B L0: 67.7% 12.6% 6.3% 3.3% 2.4% 2.0% 1.6% 1.0% 0.8% 0.7% 0.5% 0.5% 0.4% 0.3% 0.1%
x264 [info]: ref B L1: 91.1% 8.9%



Скачать Полет.Феникса.Flight.of.the.Phoenix.(Джон.Мур).[2004.боевик.триллер.драма.приключения.BDRip-AVC].[Dub]+[MVO]x2+[DVO]+[VO]+[Оригинал]+[Sub]x2.torrent без регистрации
Золото ЗОЛОТАЯ РАЗДАЧА! СКАЧАННОЕ НЕ ЗАСЧИТЫВАЕТСЯ! Золото
Дата: Зарегистрирован   [ Тип: внутренний ] Как тут cкачать?
MAGNET ссылка
MAGNET ссылка


Скачать .torrent

16 KB

Статус: проверено DHT
Скачан: торрент - 19 раз, раздача полностью - 9 раз
Размер: 2,91 GB
Оценка:  - (Голосов: 0)
Поблагодарили: 2
Поделиться ссылкой на эту раздачу с друзьями:
В контактеFacebookОдноклассникиTwitterLivejournalМой МирLiveinternet
 

 
Показать сообщения:    


Вы не можете начинать темы
Вы не можете отвечать на сообщения
Вы не можете редактировать свои сообщения
Вы не можете удалять свои сообщения
Вы не можете голосовать в опросах
Вы не можете прикреплять файлы к сообщениям
Вы можете скачивать файлы