Loading...
Error

Скачать Рейд: Пуля в голове / Headshot (Кимо Стамбол, Тимо Тьяджанто) [2016, боевик, триллер, драма, комедия, WEB-DL] [1080p] [Dub (Лицензия R5)]+[Ind]+[Sub Rus, Eng] торрент без регистрации

Статистика раздачи
Размер:  8,99 GB   |    Скачан:  187 раз

Полного источника не было: 30 минут

 
 
 
Автор Сообщение

МихаНЕзатор

[] 

Информация о фильме
Название: Рейд: Пуля в голове
Оригинальное название: Headshot
Год выхода: 2016
Жанр: боевик, триллер, драма
Режиссер: Кимо Стамбол, Тимо Тьяджанто

В ролях: Ико Уайс, Джулия Эстелл, Дэвид Хендраван, Челси Ислан, Эпи Куснандар, Зак Ли, Санни Пан, Вери Три Юлисман

О фильме: Молодого человека с серьёзной травмой головы прибивает к берегу моря. Он жив, но ничего не помнит. Молодой доктор пытается его вылечить, но прошлое не заставляет себя долго ждать…



Страна: Индонезия
Студия: Screenplay Infinite Films
Продолжительность: 01:58:18
Перевод: Дублированный (Лицензия R5)

Файл
Кодек: MPEG-4 AVC
Качество: BDRip 1080p
Видео: 1920x804, 8985 Kbps, 23.976 fps
Звук:
Аудио 1: AC3, 6 ch, 384 Kbps - Русский
Аудио 2: DTS, 6 ch, 1509 Kbps - Индонезийский
Субтитры: Русские (полные R5), Английские (полные)

АНОНСЫ ПОПУЛЯРНЫХ РАЗДАЧ


Торрент обновлён, улучшен видеоряд и звук!
x264 [info]: frame I:1036 Avg QP:14.31 size:169687
x264 [info]: frame P:45292 Avg QP:17.33 size: 79150
x264 [info]: frame B:123866 Avg QP:19.09 size: 33971

Общее
Уникальный идентификатор : 204845552281501094163306616343352720284 (0x9A1BD17CDA3F54B1949486BEA44A3B9C)
Полное имя : D:FilmHeadshot.2016.BDRip.1080p.mkv
Формат : Matroska
Версия формата : Version 4 / Version 2
Размер файла : 8,99 Гбайт
Продолжительность : 1 ч. 58 м.
Общий поток : 10,9 Мбит/сек
Название фильма : Headshot.2016.BDRip.1080p
Дата кодирования : UTC 2017-11-17 21:42:07
Программа кодирования : mkvmerge v17.0.0 ('Be Ur Friend') 64-bit
Библиотека кодирования : libebml v1.3.5 + libmatroska v1.4.8

Видео
Идентификатор : 1
Формат : AVC
Формат/Информация : Advanced Video Codec
Профиль формата : High@L4.1
Настройки формата : CABAC / 5 Ref Frames
Параметр CABAC формата : Да
Параметр RefFrames формата : 5 кадров
Идентификатор кодека : V_MPEG4/ISO/AVC
Продолжительность : 1 ч. 58 м.
Битрейт : 8985 Кбит/сек
Ширина : 1920 пикселей
Высота : 804 пикселя
Соотношение сторон : 2,40:1
Режим частоты кадров : Постоянный
Частота кадров : 23,976 (23976/1000) кадра/сек
Цветовое пространство : YUV
Субдискретизация насыщенности : 4:2:0
Битовая глубина : 8 бит
Тип развёртки : Прогрессивная
Бит/(Пиксели*Кадры) : 0.243
Размер потока : 7,42 Гбайт (83%)
Заголовок : rip by -=walledol=-
Библиотека кодирования : x264 core 150 r2833 df79067
Настройки программы : cabac=1 / ref=5 / deblock=1:-3:-3 / analyse=0x3:0x133 / me=umh / subme=11 / psy=1 / psy_rd=1.02:0.02 / mixed_ref=1 / me_range=32 / chroma_me=1 / trellis=2 / 8x8dct=1 / cqm=0 / deadzone=21,11 / fast_pskip=0 / chroma_qp_offset=-3 / threads=6 / lookahead_threads=1 / sliced_threads=0 / nr=0 / decimate=1 / interlaced=0 / bluray_compat=0 / constrained_intra=0 / bframes=10 / b_pyramid=2 / b_adapt=2 / b_bias=0 / direct=3 / weightb=1 / open_gop=0 / weightp=2 / keyint=240 / keyint_min=23 / scenecut=40 / intra_refresh=0 / rc=2pass / mbtree=0 / bitrate=8985 / ratetol=1.0 / qcomp=0.60 / qpmin=0 / qpmax=69 / qpstep=4 / cplxblur=20.0 / qblur=0.5 / ip_ratio=1.40 / pb_ratio=1.30 / aq=3:0.65
Язык : Indonesian
Default : Нет
Forced : Нет

Аудио #1
Идентификатор : 2
Формат : AC-3
Формат/Информация : Audio Coding 3
Идентификатор кодека : A_AC3
Продолжительность : 1 ч. 58 м.
Вид битрейта : Постоянный
Битрейт : 384 Кбит/сек
Каналы : 6 каналов
Расположение каналов : Front: L C R, Side: L R, LFE
Частота : 48,0 КГц
Частота кадров : 31,250 кадров/сек (1536 SPF)
Битовая глубина : 16 бит
Метод сжатия : С потерями
Размер потока : 325 Мбайт (4%)
Заголовок : DUB
Язык : Russian
ServiceKind : Complete Main
Default : Да
Forced : Нет

Аудио #2
Идентификатор : 3
Формат : DTS
Формат/Информация : Digital Theater Systems
Идентификатор кодека : A_DTS
Продолжительность : 1 ч. 58 м.
Вид битрейта : Постоянный
Битрейт : 1509 Кбит/сек
Каналы : 6 каналов
Расположение каналов : Front: L C R, Side: L R, LFE
Частота : 48,0 КГц
Частота кадров : 93,750 кадра/сек (512 SPF)
Битовая глубина : 24 бит
Метод сжатия : С потерями
Размер потока : 1,25 Гбайт (14%)
Язык : Indonesian
Default : Нет
Forced : Нет

Текст #1
Идентификатор : 4
Формат : UTF-8
Идентификатор кодека : S_TEXT/UTF8
Идентификатор кодека/Информация : UTF-8 Plain Text
Продолжительность : 1 ч. 55 м.
Битрейт : 25 бит/сек
ElementCount : 597
Размер потока : 21,4 Кбайт (0%)
Заголовок : Full
Язык : Russian
Default : Нет
Forced : Нет

Текст #2
Идентификатор : 5
Формат : UTF-8
Идентификатор кодека : S_TEXT/UTF8
Идентификатор кодека/Информация : UTF-8 Plain Text
Продолжительность : 1 ч. 53 м.
Битрейт : 14 бит/сек
ElementCount : 511
Размер потока : 11,9 Кбайт (0%)
Заголовок : Full
Язык : English
Default : Нет
Forced : Нет

Меню
00:00:00.000 : en:Chapter 01
00:08:30.760 : en:Chapter 02
00:17:55.157 : en:Chapter 03
00:30:08.598 : en:Chapter 04
00:44:42.096 : en:Chapter 05
00:53:31.625 : en:Chapter 06
01:02:09.600 : en:Chapter 07
01:13:48.340 : en:Chapter 08
01:20:57.143 : en:Chapter 09
01:34:25.368 : en:Chapter 10
01:43:55.854 : en:Chapter 11
01:54:38.955 : en:Chapter 12



Скачать Рейд.Пуля.в.голове.Headshot.(Кимо.Стамбол.Тимо.Тьяджанто).[2016.боевик.триллер.драма.комедия.WEB-DL].[1080p].[Dub.(Лицензия.R5)]+[Ind]+[Sub.Rus.Eng].torrent без регистрации
Золото ЗОЛОТАЯ РАЗДАЧА! СКАЧАННОЕ НЕ ЗАСЧИТЫВАЕТСЯ! Золото
Дата: Зарегистрирован   [ Тип: внутренний ] Как тут cкачать?
MAGNET ссылка
MAGNET ссылка


Скачать .torrent

46 KB

Статус: проверено DHT
Скачан: торрент - 187 раз, раздача полностью - 21 раз
Размер: 8,99 GB
Оценка:  5 (Голосов: 1)
Поблагодарили: 9
Поделиться ссылкой на эту раздачу с друзьями:
В контактеFacebookОдноклассникиTwitterLivejournalМой МирLiveinternet
 

 
Показать сообщения:    


Вы не можете начинать темы
Вы не можете отвечать на сообщения
Вы не можете редактировать свои сообщения
Вы не можете удалять свои сообщения
Вы не можете голосовать в опросах
Вы не можете прикреплять файлы к сообщениям
Вы можете скачивать файлы