Loading...
Error

Скачать [VIDEO] 12 (Никита Михалков) [2007, триллер, драма, криминал, детектив, HDRip] [MP4, 480x] торрент без регистрации

Статистика раздачи
Размер:  589 MB   |    Скачан:  15 раз

Полного источника не было: 2 месяца 17 дней

 
 
 
Автор Сообщение

Egorijj.Alien

[] 

12

Год выпуска: 2007
Выпущено: Россия
Жанр: триллер, драма, криминал, детектив

Режиссёр: Никита Михалков
В ролях: Сергей Маковецкий, Никита Михалков, Сергей Гармаш, Валентин Гафт, Алексей Петренко, Юрий Стоянов, Сергей Газаров, Михаил Ефремов, Алексей Горбунов, Сергей Арцибашев

Продолжительность: 02:35:05
Перевод: Не требуется
Субтитры: Нет

Описание: История о 12-ти присяжных, обсуждающих, виновен ли 18-летний юноша, обвиняемый в убийстве своего отчима — офицера Российской армии, воевавшего в Чечне.
Все улики свидетельствуют против обвиняемого, и одиннадцать из двенадцати человек, собравшихся в школьном спортзале, готовы осудить юношу. Но один из присяжных уверен, что все не так однозначно, как кажется на первый взгляд, и предлагает коллегам более вдумчиво рассмотреть дело.



Рип от: Egorijj.Alien

Качество: HDRip на мобильные устройства
Формат: MP4
Видео кодек: AVC
Аудио кодек: AAC
Видео: 480x208, 400 kbps, 23.976 fps
Аудио: 128 kbps, 2 ch, 48,0 khz

General
Complete name : E:\Видео\Кино\12.mp4
Format : MPEG-4
Format profile : Base Media
Codec ID : isom
File size : 589 MiB
Duration : 2h 35mn
Overall bit rate mode : Variable
Overall bit rate : 531 Kbps
Encoded date : UTC 2017-03-26 23:12:09
Tagged date : UTC 2017-03-26 23:12:09

Video
ID : 1
Format : AVC
Format/Info : Advanced Video Codec
Format profile : High@L2.1
Format settings, CABAC : Yes
Format settings, ReFrames : 8 frames
Codec ID : avc1
Codec ID/Info : Advanced Video Coding
Duration : 2h 35mn
Bit rate : 400 Kbps
Maximum bit rate : 3 680 Kbps
Width : 480 pixels
Height : 208 pixels
Display aspect ratio : 2.35:1
Frame rate mode : Constant
Frame rate : 23.976 fps
Color space : YUV
Chroma subsampling : 4:2:0
Bit depth : 8 bits
Scan type : Progressive
Bits/(Pixel*Frame) : 0.167
Stream size : 443 MiB (75%)
Writing library : x264 core 130 r2273 b3065e6
Encoding settings : cabac=1 / ref=8 / deblock=1:0:0 / analyse=0x3:0x113 / me=hex / subme=8 / psy=1 / psy_rd=1.00:0.00 / mixed_ref=1 / me_range=16 / chroma_me=1 / trellis=1 / 8x8dct=1 / cqm=0 / deadzone=21,11 / fast_pskip=1 / chroma_qp_offset=-2 / threads=3 / lookahead_threads=1 / sliced_threads=0 / nr=0 / decimate=1 / interlaced=0 / bluray_compat=0 / constrained_intra=0 / bframes=8 / b_pyramid=2 / b_adapt=1 / b_bias=0 / direct=3 / weightb=1 / open_gop=0 / weightp=2 / keyint=250 / keyint_min=23 / scenecut=40 / intra_refresh=0 / rc_lookahead=40 / rc=2pass / mbtree=1 / bitrate=400 / ratetol=1.0 / qcomp=0.60 / qpmin=0 / qpmax=69 / qpstep=4 / cplxblur=20.0 / qblur=0.5 / ip_ratio=1.40 / aq=1:1.00
Encoded date : UTC 2017-03-26 23:12:09
Tagged date : UTC 2017-03-26 23:13:00

Audio
ID : 2
Format : AAC
Format/Info : Advanced Audio Codec
Format profile : LC
Codec ID : 40
Duration : 2h 35mn
Bit rate mode : Variable
Bit rate : 128 Kbps
Maximum bit rate : 135 Kbps
Channel(s) : 2 channels
Channel positions : Front: L R
Sampling rate : 48.0 KHz
Compression mode : Lossy
Stream size : 142 MiB (24%)
Encoded date : UTC 2017-03-26 23:12:51
Tagged date : UTC 2017-03-26 23:13:00



Скачать 12.(Никита.Михалков).[2007.триллер.драма.криминал.детектив.HDRip].[MP4.480x].torrent без регистрации
Золото ЗОЛОТАЯ РАЗДАЧА! СКАЧАННОЕ НЕ ЗАСЧИТЫВАЕТСЯ! Золото
Дата: Зарегистрирован   [ Тип: внутренний ] Как тут cкачать?
MAGNET ссылка
MAGNET ссылка


Скачать .torrent

12 KB

Статус: * не проверено
Скачан: торрент - 15 раз, раздача полностью - 6 раз
Размер: 589 MB
Оценка:  - (Голосов: 0)
Поблагодарили: 0
Поделиться ссылкой на эту раздачу с друзьями:
В контактеFacebookОдноклассникиTwitterLivejournalМой МирLiveinternet
 

 
Показать сообщения:    


Вы не можете начинать темы
Вы не можете отвечать на сообщения
Вы не можете редактировать свои сообщения
Вы не можете удалять свои сообщения
Вы не можете голосовать в опросах
Вы не можете прикреплять файлы к сообщениям
Вы можете скачивать файлы