Loading...
Error

Скачать Собачья жизнь / A Dog's Purpose (Лассе Халльстрём) [2017, фэнтези, драма, комедия, приключения, семейный, Blu-Ray Remux 1080p] 2x[DUB] (Rus, Ukr) + [AVO] (Л.Володарский) торрент без регистрации

Статистика раздачи
Размер:  27,93 GB   |    Скачан:  351 раз
Сидов:  1  [  0 KB/s  ]  
 
 
 
Автор Сообщение

leon030982

[] 

Собачья жизнь / A Dog's Purpose




Год выхода : 2017
Жанр : фэнтези, драма, комедия, приключения, семейный,
Страна : США
Продолжительность : 01:40:02
Перевод 1: Дубляж (iTunes)
Перевод 2: Авторский (одноголосый) Л.Володарский
Перевод 3: Украинский (дубляж) iTunes
Субтитры: Английские

Режиссер : Лассе Халльстрём

В главных ролях : Джош Гад, Деннис Куэйд, Пегги Липтон, Кей Джей Апа, Bryce Gheisar, Джульет Райлэнс, Люк Кирби, Габриель Роз, Майкл Бофшевер, Бритт Робертсон

Описание : Собаки бывают разных пород, мастей и размеров. Они — наши самые верные и преданные друзья, а мы учим их хорошим манерам. Собаки всегда думают о нас, правда, иногда и о беконе. Все они каждый день провожают и встречают нас у порога в уверенности, что пока им есть, кого облизывать и любить, в их жизни есть смысл.



Файл
Качество : Blu-Ray Remux (1080p)
Формат видео : MKV
Видео : MPEG-4 AVC, 32160 Кбит/с, 1920x1080, 23.976 Кадр/с
Аудио 1: Русский AC3 5.1 384 kbps - Дубляж (iTunes)
Аудио 2: Русский DTS-HD MA 5.1 3549 kbps - Авторский (Володарский)
Аудио 3: Украинский AC3 2.0 192 kbps - Дубляж (iTunes)
Аудио 4: Английский DTS-HD MA 5.1 3686 kbps - Оригинал
Общее
Уникальный идентификатор : 180732283632874505658772038269588013348 (0x87F7C58DE89CABE789379D40CE750124)
Полное имя : D:\1 РЕМУКС!!!!!\Собачья жизнь.BDRemux..mkv
Формат : Matroska
Версия формата : Version 4 / Version 2
Размер файла : 27,9 Гбайт
Продолжительность : 1 ч. 40 м.
Режим общего битрейта : Переменный
Общий поток : 40,0 Мбит/сек
Название фильма : Собачья жизнь.BDRemux.thx:SPOMOPS
Дата кодирования : UTC 2018-04-04 04:43:01
Программа кодирования : mkvmerge v8.3.0 ('Over the Horizon') 64bit
Библиотека кодирования : libebml v1.3.1 + libmatroska v1.4.2

Видео
Идентификатор : 1
Формат : AVC
Формат/Информация : Advanced Video Codec
Профиль формата : High@L4.1
Настройки формата : CABAC / 4 Ref Frames
Параметр CABAC формата : Да
Параметр RefFrames формата : 4 кадра
Идентификатор кодека : V_MPEG4/ISO/AVC
Продолжительность : 1 ч. 40 м.
Вид битрейта : Переменный
Битрейт : 32,2 Мбит/сек
Максимальный битрейт : 35,0 Мбит/сек
Ширина : 1920 пикселей
Высота : 1080 пикселей
Соотношение сторон : 16:9
Режим частоты кадров : Постоянный
Частота кадров : 23,976 (24000/1001) кадра/сек
Цветовое пространство : YUV
Субдискретизация насыщенности : 4:2:0
Битовая глубина : 8 бит
Тип развёртки : Прогрессивная
Бит/(Пиксели*Кадры) : 0.647
Размер потока : 22,5 Гбайт (80%)
Язык : English
Default : Да
Forced : Нет

Аудио #1
Идентификатор : 2
Формат : AC-3
Формат/Информация : Audio Coding 3
Идентификатор кодека : A_AC3
Продолжительность : 1 ч. 40 м.
Вид битрейта : Постоянный
Битрейт : 384 Кбит/сек
Каналы : 6 каналов
Расположение каналов : Front: L C R, Side: L R, LFE
Частота : 48,0 КГц
Частота кадров : 31,250 кадров/сек (1536 SPF)
Битовая глубина : 16 бит
Метод сжатия : С потерями
Размер потока : 275 Мбайт (1%)
Заголовок : Русский ас3 - Дубляж
Язык : Russian
ServiceKind/String : Complete Main
Default : Да
Forced : Нет

Аудио #2
Идентификатор : 3
Формат : DTS
Формат/Информация : Digital Theater Systems
Профиль формата : MA / Core
Идентификатор кодека : A_DTS
Продолжительность : 1 ч. 40 м.
Вид битрейта : Переменный / Постоянный
Битрейт : 3549 Кбит/сек / 1509 Кбит/сек
Каналы : 6 каналов
Расположение каналов : Front: L C R, Side: L R, LFE
Частота : 48,0 КГц
Частота кадров : 93,750 кадра/сек (512 SPF)
Битовая глубина : 24 бит
Метод сжатия : Без потерь / Lossy
Задержка видео : 21 мс.
Размер потока : 2,48 Гбайт (9%)
Заголовок : Русский DTS-HD MA - АП (Володарский)
Язык : Russian
Default : Нет
Forced : Нет

Аудио #3
Идентификатор : 4
Формат : DTS
Формат/Информация : Digital Theater Systems
Профиль формата : MA / Core
Идентификатор кодека : A_DTS
Продолжительность : 1 ч. 40 м.
Вид битрейта : Переменный / Постоянный
Битрейт : 3686 Кбит/сек / 1509 Кбит/сек
Каналы : 6 каналов
Расположение каналов : Front: L C R, Side: L R, LFE
Частота : 48,0 КГц
Частота кадров : 93,750 кадра/сек (512 SPF)
Битовая глубина : 24 бит
Метод сжатия : Без потерь / Lossy
Размер потока : 2,58 Гбайт (9%)
Заголовок : Английский DTS-HD MA - Оригинал
Язык : English
Default : Нет
Forced : Нет

Аудио #4
Идентификатор : 5
Формат : AC-3
Формат/Информация : Audio Coding 3
Идентификатор кодека : A_AC3
Продолжительность : 1 ч. 40 м.
Вид битрейта : Постоянный
Битрейт : 192 Кбит/сек
Каналы : 2 канала
Расположение каналов : Front: L R
Частота : 48,0 КГц
Частота кадров : 31,250 кадров/сек (1536 SPF)
Битовая глубина : 16 бит
Метод сжатия : С потерями
Размер потока : 137 Мбайт (0%)
Заголовок : Украинский ас3 - Дубляж
Язык : Ukrainian
ServiceKind/String : Complete Main
Default : Нет
Forced : Нет

Текст
Идентификатор : 6
Формат : UTF-8
Идентификатор кодека : S_TEXT/UTF8
Идентификатор кодека/Информация : UTF-8 Plain Text
Продолжительность : 1 ч. 32 м.
Битрейт : 64 бит/сек
ElementCount : 1710
Размер потока : 43,9 Кбайт (0%)
Заголовок : Английские
Язык : English
Default : Нет
Forced : Нет

Меню
00:00:00.000 : en:Chapter 01
00:04:39.779 : en:Chapter 02
00:08:54.408 : en:Chapter 03
00:14:10.307 : en:Chapter 04
00:17:46.482 : en:Chapter 05
00:22:38.607 : en:Chapter 06
00:28:33.002 : en:Chapter 07
00:33:45.481 : en:Chapter 08
00:37:26.702 : en:Chapter 09
00:42:16.116 : en:Chapter 10
00:48:31.533 : en:Chapter 11
00:51:24.247 : en:Chapter 12
00:56:04.736 : en:Chapter 13
01:01:12.669 : en:Chapter 14
01:05:40.311 : en:Chapter 15
01:12:03.068 : en:Chapter 16
01:16:24.496 : en:Chapter 17
01:21:07.988 : en:Chapter 18
01:27:57.939 : en:Chapter 19
01:33:40.615 : en:Chapter 20



Скачать Собачья.жизнь.A.Dog's.Purpose.(Лассе.Халльстрём).[2017.фэнтези.драма.комедия.приключения.семейный.Blu-Ray.Remux.1080p].2x[DUB].(Rus.Ukr).+.[AVO].(Л.Володарский).torrent без регистрации
Золото ЗОЛОТАЯ РАЗДАЧА! СКАЧАННОЕ НЕ ЗАСЧИТЫВАЕТСЯ! Золото
Дата: Зарегистрирован   [ Тип: внутренний ] Как тут cкачать?
MAGNET ссылка
MAGNET ссылка


Скачать .torrent

140 KB

Статус: проверено DHT
Скачан: торрент - 351 раз, раздача полностью - 40 раз
Размер: 27,93 GB
Оценка:  4,7 (Голосов: 3)
Поблагодарили: 17
Поделиться ссылкой на эту раздачу с друзьями:
В контактеFacebookОдноклассникиTwitterLivejournalМой МирLiveinternet
 

 
Показать сообщения:    


Вы не можете начинать темы
Вы не можете отвечать на сообщения
Вы не можете редактировать свои сообщения
Вы не можете удалять свои сообщения
Вы не можете голосовать в опросах
Вы не можете прикреплять файлы к сообщениям
Вы можете скачивать файлы