Loading...
Error

Скачать Преисподняя / Brimstone (Мартин Кулховен) [2016, триллер, детектив, вестерн, BDRemux] [1080p] [MVO (лицензия)]+[Eng]+[Sub Rus, Eng] [US Transfer] торрент без регистрации

Статистика раздачи
Размер:  31,09 GB   |    Скачан:  70 раз
Сидов:  1  [  0 KB/s  ]  
 
 
 
Автор Сообщение

МихаНЕзатор

[] 

Информация о фильме
Название: Преисподняя
Оригинальное название: Brimstone
Год выхода: 2016
Жанр: триллер, детектив, вестерн
Режиссер: Мартин Кулховен

В ролях: Дакота Фэннинг, Кит Харингтон, Кэрис ван Хаутен, Гай Пирс, Пол Андерсон, Эмилия Джонс, Карла Юри, Джек Рот, Тиго Гернандт, Наоми Баттрик

О фильме: История о девушке по имени Лиз, которая пытается сбежать от своего темного прошлого и скрывается от преследования «дьявольского» проповедника



Страна: Нидерланды, Франция, Германия, Бельгия, Швеция, Великобритания
Студия: Backup Media, Film i Väst, FilmWave
Продолжительность: 02:28:31
Перевод: Профессиональный многоголосый | Лицензия

Файл
Качество: BDRemux 1080p
Видео: MPEG-4 AVC, 1920x1080, 24.0 Mbit/s, 23.976 fps
Звук:
Аудио #01: 48 kHz, DTS-HD MA, 5.1, 3515 Kbps | Лицензия | RUS |
Аудио #02: 48 kHz, AC3, 5.1, 640 Kbps | Лицензия | RUS |
Аудио #03: 48 kHz, DTS-HD MA, 5.1, 1810 Kbps | Оригинал | ENG |
Субтитры: Русские (full), английские (forced, full)

АНОНСЫ ПОПУЛЯРНЫХ РАЗДАЧ

General
Unique ID : 227316283586483602295632178835752657591 (0xAB038613DD3941C0BB6ABCDF370AA2B7)
Complete name : G:VideoSSDBrimstone.2016.Lic.BDREMUX.1080p.ExKinoRay.mkv
Format : Matroska
Format version : Version 4 / Version 2
File size : 31.1 GiB
Duration : 2 h 28 min
Overall bit rate mode : Variable
Overall bit rate : 30.0 Mb/s
Movie name : Brimstone.2016.ExKinoRay
Encoded date : UTC 2017-11-27 20:51:32
Writing application : mkvmerge v17.0.0 ('Be Ur Friend') 64-bit
Writing library : libebml v1.3.5 + libmatroska v1.4.8

Video
ID : 1
Format : AVC
Format/Info : Advanced Video Codec
Format profile : High@L4.1
Format settings : CABAC / 4 Ref Frames
Format settings, CABAC : Yes
Format settings, RefFrames : 4 frames
Format settings, GOP : M=3, N=24
Codec ID : V_MPEG4/ISO/AVC
Duration : 2 h 28 min
Bit rate mode : Variable
Bit rate : 24.0 Mb/s
Maximum bit rate : 35.0 Mb/s
Width : 1 920 pixels
Height : 1 080 pixels
Display aspect ratio : 16:9
Frame rate mode : Constant
Frame rate : 23.976 (24000/1001) FPS
Standard : NTSC
Color space : YUV
Chroma subsampling : 4:2:0
Bit depth : 8 bits
Scan type : Progressive
Bits/(Pixel*Frame) : 0.483
Stream size : 24.9 GiB (80%)
Language : English
Default : Yes
Forced : No
Color range : Limited
Color primaries : BT.709
Transfer characteristics : BT.709
Matrix coefficients : BT.709

Audio #1
ID : 2
Format : DTS
Format/Info : Digital Theater Systems
Format profile : MA / Core
Mode : 16
Format settings, Endianness : Big
Codec ID : A_DTS
Duration : 2 h 28 min
Bit rate mode : Variable / Constant
Bit rate : 3 515 kb/s / 1 509 kb/s
Channel(s) : 6 channels
Channel positions : Front: L C R, Side: L R, LFE
Sampling rate : 48.0 kHz
Frame rate : 93.750 FPS (512 SPF)
Bit depth : 24 bits
Compression mode : Lossless / Lossy
Stream size : 3.65 GiB (12%)
Title : Dub [License]
Language : Russian
Default : Yes
Forced : No

Audio #2
ID : 3
Format : AC-3
Format/Info : Audio Coding 3
Format settings, Endianness : Big
Codec ID : A_AC3
Duration : 2 h 28 min
Bit rate mode : Constant
Bit rate : 640 kb/s
Channel(s) : 6 channels
Channel positions : Front: L C R, Side: L R, LFE
Sampling rate : 48.0 kHz
Frame rate : 31.250 FPS (1536 SPF)
Bit depth : 16 bits
Compression mode : Lossy
Stream size : 680 MiB (2%)
Title : Dub [License]
Language : Russian
Service kind : Complete Main
Default : No
Forced : No

Audio #3
ID : 4
Format : DTS
Format/Info : Digital Theater Systems
Format profile : MA / Core
Mode : 16
Format settings, Endianness : Big
Codec ID : A_DTS
Duration : 2 h 28 min
Bit rate mode : Variable / Constant
Bit rate : 1 810 kb/s / 1 509 kb/s
Channel(s) : 6 channels
Channel positions : Front: L C R, Side: L R, LFE
Sampling rate : 48.0 kHz
Frame rate : 93.750 FPS (512 SPF)
Bit depth : 16 bits
Compression mode : Lossless / Lossy
Stream size : 1.88 GiB (6%)
Title : Original
Language : English
Default : No
Forced : No

Text #1
ID : 5
Format : UTF-8
Codec ID : S_TEXT/UTF8
Codec ID/Info : UTF-8 Plain Text
Duration : 2 h 18 min
Bit rate : 45 b/s
Count of elements : 1018
Stream size : 46.6 KiB (0%)
Title : Full
Language : Russian
Default : No
Forced : No

Text #2
ID : 6
Format : UTF-8
Codec ID : S_TEXT/UTF8
Codec ID/Info : UTF-8 Plain Text
Duration : 2 h 0 min
Bit rate : 0 b/s
Count of elements : 32
Stream size : 836 Bytes (0%)
Title : Forced
Language : English
Default : No
Forced : No

Text #3
ID : 7
Format : UTF-8
Codec ID : S_TEXT/UTF8
Codec ID/Info : UTF-8 Plain Text
Duration : 2 h 18 min
Bit rate : 27 b/s
Count of elements : 948
Stream size : 28.2 KiB (0%)
Title : Full
Language : English
Default : No
Forced : No

Menu
00:00:00.000 : en:00:00:00.000
00:04:29.853 : en:00:04:29.853
00:11:51.920 : en:00:11:51.920
00:19:58.489 : en:00:19:58.489
00:25:06.213 : en:00:25:06.213
00:32:22.190 : en:00:32:22.190
00:42:25.042 : en:00:42:25.042
00:48:21.148 : en:00:48:21.148
00:55:44.341 : en:00:55:44.341
01:01:14.254 : en:01:01:14.254
01:06:42.040 : en:01:06:42.040
01:17:13.963 : en:01:17:13.963
01:24:38.156 : en:01:24:38.156
01:32:47.312 : en:01:32:47.312
01:39:57.241 : en:01:39:57.241
01:49:04.788 : en:01:49:04.788
01:56:10.630 : en:01:56:10.630
02:02:54.867 : en:02:02:54.867
02:13:38.177 : en:02:13:38.177
02:20:17.909 : en:02:20:17.909



Скачать Преисподняя.Brimstone.(Мартин.Кулховен).[2016.триллер.детектив.вестерн.BDRemux].[1080p].[MVO.(лицензия)]+[Eng]+[Sub.Rus.Eng].[US.Transfer].torrent без регистрации
Золото ЗОЛОТАЯ РАЗДАЧА! СКАЧАННОЕ НЕ ЗАСЧИТЫВАЕТСЯ! Золото
Дата: Зарегистрирован   [ Тип: внутренний ] Как тут cкачать?
MAGNET ссылка
MAGNET ссылка


Скачать .torrent

156 KB

Статус: проверено DHT
Скачан: торрент - 70 раз, раздача полностью - 10 раз
Размер: 31,09 GB
Оценка:  5 (Голосов: 2)
Поблагодарили: 7
Поделиться ссылкой на эту раздачу с друзьями:
В контактеFacebookОдноклассникиTwitterLivejournalМой МирLiveinternet
 

 
Показать сообщения:    


Вы не можете начинать темы
Вы не можете отвечать на сообщения
Вы не можете редактировать свои сообщения
Вы не можете удалять свои сообщения
Вы не можете голосовать в опросах
Вы не можете прикреплять файлы к сообщениям
Вы можете скачивать файлы