Loading...
Error

Скачать Лев / Lion (Гарт Дэвис) [2016, драма, BDRip] [1080p] [MVO (лицензия)]+[Eng]+[Sub Rus, Eng] торрент без регистрации

Статистика раздачи
Размер:  10,73 GB   |    Скачан:  224 раза
Сидов:  1  [  0 KB/s  ]  
 
 
 
Автор Сообщение

МихаНЕзатор

[] 

Информация о фильме
Название: Лев
Оригинальное название: Lion
Год выхода: 2016
Жанр: драма
Режиссер: Гарт Дэвис

В ролях: Дев Патель, Николь Кидман, Руни Мара, Дэвид Уэнэм, Санни Павар, Абхишек Бхарате, Приянка Бозе, Кхуши Соланки, Шанкар Нисоде, Танништа Чаттерджи

О фильме: Ночь, когда пятилетний Сару забрался в пустой вагон идущего без остановок поезда, стала поворотной в его судьбе. Отъехав от родных мест на тысячи километров, он оказался в Калькутте – многолюдной, опасной, говорящей на непонятном бенгальском языке. Через два месяца, чумазым и изголодавшим беспризорником, он попал в детский приют, а оттуда в Австралию, где жила усыновившая его семья. Для потерявшегося в огромной Индии маленького мальчика началась новая, безмятежная жизнь. И только спустя двадцать лет, увидев в доме друзей любимые сладости из забытого индийского детства, он впервые задумался о своем прошлом. Отрывочные воспоминания все чаще возвращали его к истокам. Идея найти свою потерянную семью полностью захватила Сару. Но как её осуществить, если кроме неправильного названия деревни, имени брата и водонапорной башни, расположенной недалеко от перрона, с которого уехал в другую жизнь, он ничего не помнит?



Страна: США, Австралия, Великобритания
Студия: See-Saw Films, Sunstar Entertainment, The Weinstein Company LLC
Продолжительность: 01:58:32
Перевод: Профессиональный многоголосый (закадровый) | Лицензия

Файл
Качество: BDRip 1080p
Видео: MPEG-4 AVC, 1920x800, 9300 Kbit/s, 23.976 fps
Звук:
Аудио #01: 48 kHz, DTS, 5.1, 1510 Kbps | Лицензия | RUS |
Аудио #02: 48 kHz, AC3, 5.1, 640 Kbps | Лицензия | RUS |
Аудио #03: 48 kHz, DTS, 5.1, 1510 Kbps | Оригинал | ENG |
Субтитры: Русские, английские

АНОНСЫ ПОПУЛЯРНЫХ РАЗДАЧ


Торрент обновлён, улучшен видеоряд и звук!
General
Unique ID : 240525744288027567468990233199746191148 (0xB4F392C5E35F8A6786DC0A6855DB8F2C)
Complete name : F:VideoLion.2016.Lic.BDRip.1080p.ExKinoRay.mkv
Format : Matroska
Format version : Version 4 / Version 2
File size : 10.7 GiB
Duration : 1 h 58 min
Overall bit rate : 13.0 Mb/s
Encoded date : UTC 2017-05-19 06:22:52
Writing application : mkvmerge v11.0.0 ('Alive') 64bit
Writing library : libebml v1.3.4 + libmatroska v1.4.5
Cover : Yes
Attachments : cover.jpg

Video
ID : 1
Format : AVC
Format/Info : Advanced Video Codec
Format profile : High@L4.1
Format settings, CABAC : Yes
Format settings, ReFrames : 5 frames
Codec ID : V_MPEG4/ISO/AVC
Duration : 1 h 58 min
Bit rate : 9 300 kb/s
Width : 1 920 pixels
Height : 800 pixels
Display aspect ratio : 2.40:1
Frame rate mode : Constant
Frame rate : 23.976 (24000/1001) FPS
Color space : YUV
Chroma subsampling : 4:2:0
Bit depth : 8 bits
Scan type : Progressive
Bits/(Pixel*Frame) : 0.253
Stream size : 7.70 GiB (72%)
Writing library : x264 core 148 r2665kMod a01e339
Encoding settings : cabac=1 / ref=5 / deblock=1:-3:-3 / analyse=0x3:0x133 / me=umh / subme=11 / psy=1 / fade_compensate=0.00 / psy_rd=0.85:0.00 / mixed_ref=1 / me_range=48 / chroma_me=1 / trellis=2 / 8x8dct=1 / cqm=0 / deadzone=21,11 / fast_pskip=0 / chroma_qp_offset=-2 / threads=24 / lookahead_threads=4 / sliced_threads=0 / nr=0 / decimate=0 / interlaced=0 / bluray_compat=0 / constrained_intra=0 / fgo=0 / bframes=8 / b_pyramid=2 / b_adapt=2 / b_bias=0 / direct=3 / weightb=1 / open_gop=0 / weightp=2 / keyint=240 / keyint_min=24 / scenecut=40 / intra_refresh=0 / rc=2pass / mbtree=0 / bitrate=9300 / ratetol=1.0 / qcomp=0.70 / qpmin=0 / qpmax=69 / qpstep=4 / cplxblur=20.0 / qblur=0.5 / ip_ratio=1.20 / pb_ratio=1.20 / aq=3:0.80
Language : English
Default : Yes
Forced : No

Audio #1
ID : 2
Format : DTS
Format/Info : Digital Theater Systems
Mode : 16
Format settings, Endianness : Big
Codec ID : A_DTS
Duration : 1 h 58 min
Bit rate mode : Constant
Bit rate : 1 510 kb/s
Channel(s) : 6 channels
Channel positions : Front: L C R, Side: L R, LFE
Sampling rate : 48.0 kHz
Frame rate : 93.750 FPS (512 spf)
Bit depth : 24 bits
Compression mode : Lossy
Stream size : 1.25 GiB (12%)
Title : MVO [License]
Language : Russian
Default : Yes
Forced : No

Audio #2
ID : 3
Format : AC-3
Format/Info : Audio Coding 3
Format settings, Endianness : Big
Codec ID : A_AC3
Duration : 1 h 58 min
Bit rate mode : Constant
Bit rate : 640 kb/s
Channel(s) : 6 channels
Channel positions : Front: L C R, Side: L R, LFE
Sampling rate : 48.0 kHz
Frame rate : 31.250 FPS (1536 spf)
Bit depth : 16 bits
Compression mode : Lossy
Stream size : 543 MiB (5%)
Title : MVO [License]
Language : Russian
Service kind : Complete Main
Default : No
Forced : No

Audio #3
ID : 4
Format : DTS
Format/Info : Digital Theater Systems
Mode : 16
Format settings, Endianness : Big
Codec ID : A_DTS
Duration : 1 h 58 min
Bit rate mode : Constant
Bit rate : 1 509 kb/s
Channel(s) : 6 channels
Channel positions : Front: L C R, Side: L R, LFE
Sampling rate : 48.0 kHz
Frame rate : 93.750 FPS (512 spf)
Bit depth : 24 bits
Compression mode : Lossy
Stream size : 1.25 GiB (12%)
Title : Original
Language : English
Default : No
Forced : No

Text #1
ID : 5
Format : UTF-8
Codec ID : S_TEXT/UTF8
Codec ID/Info : UTF-8 Plain Text
Duration : 1 h 50 min
Bit rate : 44 b/s
Count of elements : 802
Stream size : 35.7 KiB (0%)
Title : Full
Language : Russian
Default : No
Forced : No

Text #2
ID : 6
Format : UTF-8
Codec ID : S_TEXT/UTF8
Codec ID/Info : UTF-8 Plain Text
Duration : 1 h 48 min
Bit rate : 25 b/s
Count of elements : 798
Stream size : 20.0 KiB (0%)
Title : Full
Language : English
Default : No
Forced : No

Menu
00:00:00.000 : en:00:00:00.000
00:08:10.073 : en:00:08:10.073
00:14:40.797 : en:00:14:40.797
00:22:37.815 : en:00:22:37.815
00:27:39.825 : en:00:27:39.825
00:32:52.053 : en:00:32:52.053
00:40:06.362 : en:00:40:06.362
00:45:45.201 : en:00:45:45.201
00:53:35.170 : en:00:53:35.170
00:58:50.902 : en:00:58:50.902
01:04:37.582 : en:01:04:37.582
01:09:15.985 : en:01:09:15.985
01:16:41.347 : en:01:16:41.347
01:22:29.444 : en:01:22:29.444
01:29:51.636 : en:01:29:51.636
01:37:00.857 : en:01:37:00.857
01:43:10.017 : en:01:43:10.017
01:51:34.313 : en:01:51:34.313



Скачать Лев.Lion.(Гарт.Дэвис).[2016.драма.BDRip].[1080p].[MVO.(лицензия)]+[Eng]+[Sub.Rus.Eng].torrent без регистрации
Золото ЗОЛОТАЯ РАЗДАЧА! СКАЧАННОЕ НЕ ЗАСЧИТЫВАЕТСЯ! Золото
Дата: Зарегистрирован   [ Тип: внутренний ] Как тут cкачать?
MAGNET ссылка
MAGNET ссылка


Скачать .torrent

55 KB

Статус: проверено DHT
Скачан: торрент - 224 раз, раздача полностью - 23 раз
Размер: 10,73 GB
Оценка:  5 (Голосов: 2)
Поблагодарили: 11
Поделиться ссылкой на эту раздачу с друзьями:
В контактеFacebookОдноклассникиTwitterLivejournalМой МирLiveinternet
 

 

andryub4

[] 

офигенный фильм bf
 
Показать сообщения:    


Вы не можете начинать темы
Вы не можете отвечать на сообщения
Вы не можете редактировать свои сообщения
Вы не можете удалять свои сообщения
Вы не можете голосовать в опросах
Вы не можете прикреплять файлы к сообщениям
Вы можете скачивать файлы