Loading...
Error

Скачать SuperАлиби / Alibi.com (Филипп Лашо) [2017, комедия, BDRip] [1080p] [Dub (лицензия iTunes)]+[Eng]+[Sub Fre] торрент без регистрации

Статистика раздачи
Размер:  12,67 GB   |    Скачан:  566 раз
Сидов:  1  [  0 KB/s  ]  
 
 
 
Автор Сообщение

МихаНЕзатор

[] 

SuperАлиби / Alibi.com


Страна: Франция
Производство: Canal+ [fr], CN5 Productions, Fechner Films, TF1 Films Production, TMC
Год выпуска: 2017
Жанр: комедия
Режиссер: Филипп Лашо
Авторы сценария: Жюльен Аррути, Пьер Дудан, Филипп Лашо

В ролях: Филипп Лашо, Элоди Фонтан, Жюльен Аррути, Тарек Будали, Дидье Бурдон, Натали Бай, Науэлл Мадани, Меди Садун, Венсан Дезанья

Описание: Нужно алиби, чтобы втайне от супруги спокойно отдохнуть с друзьями на футболе..? Вам поможет агентство по созданию алиби. Нужна отмазка в школе..? Обращайтесь! Решили отдохнуть от семьи в выходные..? Мы на связи! Этот стартап Грега и его команды уже получил оглушительный успех… Но когда он встречает Фло, девушку своей мечты, которая презирает всех лгунов и изменщиков, ему приходится скрывать род своей деятельности. Паутина лжи Грега становится настолько сложной, что даже лучшему лжецу в мире придётся изрядно изловчиться, чтобы выкрутиться из неё…

Дата премьеры (мир): 20 января 2017
Дата премьеры (РФ): 8 марта 2017, «Вольга»



Продолжительность: 01:29:10
Перевод: Профессиональный (полное дублирование) | iTunes
Субтитры: Французские (forced)

Файл
Качество: BDRip 1080p
Видео: MPEG-4 AVC, 1920x1036, 18.5 Mbit/s, 24.000 fps
Звук:
Аудио #01: 48 kHz, AC3, 5.1, 384 Kbps | Дублированный | iTunes | RUS |
Аудио #02: 48 kHz, DTS, 5.1, 1510 Kbps | Оригинал | FRE |

АНОНСЫ ПОПУЛЯРНЫХ РАЗДАЧ


Торрент обновлён, улучшен видеоряд и звук!
General
Unique ID : 235892932702896684819342271251006013814 (0xB1775386D60036C98CE81563B576C176)
Complete name : F:VideoAlibi.com.2017.BDRip.1080p.ExKinoRay.mkv
Format : Matroska
Format version : Version 4 / Version 2
File size : 12.7 GiB
Duration : 1 h 29 min
Overall bit rate : 20.3 Mb/s
Encoded date : UTC 2017-06-16 00:28:40
Writing application : mkvmerge v12.0.0 ('Trust / Lust') 64bit
Writing library : libebml v1.3.4 + libmatroska v1.4.5
Cover : Yes
Attachments : cover.jpg

Video
ID : 1
Format : AVC
Format/Info : Advanced Video Codec
Format profile : High@L4.1
Format settings, CABAC : Yes
Format settings, ReFrames : 4 frames
Codec ID : V_MPEG4/ISO/AVC
Duration : 1 h 29 min
Bit rate : 18.5 Mb/s
Width : 1 920 pixels
Height : 1 036 pixels
Display aspect ratio : 1.85:1
Frame rate mode : Constant
Frame rate : 24.000 FPS
Color space : YUV
Chroma subsampling : 4:2:0
Bit depth : 8 bits
Scan type : Progressive
Bits/(Pixel*Frame) : 0.387
Stream size : 11.5 GiB (91%)
Writing library : x264 core 146 r2538 121396c
Encoding settings : cabac=1 / ref=4 / deblock=1:-2:-2 / analyse=0x3:0x133 / me=umh / subme=10 / psy=1 / psy_rd=1.05:0.05 / mixed_ref=1 / me_range=32 / chroma_me=1 / trellis=2 / 8x8dct=1 / cqm=0 / deadzone=21,11 / fast_pskip=0 / chroma_qp_offset=-3 / threads=12 / lookahead_threads=2 / sliced_threads=0 / nr=0 / decimate=0 / interlaced=0 / bluray_compat=0 / constrained_intra=0 / bframes=8 / b_pyramid=2 / b_adapt=2 / b_bias=0 / direct=3 / weightb=1 / open_gop=0 / weightp=2 / keyint=240 / keyint_min=24 / scenecut=40 / intra_refresh=0 / rc_lookahead=50 / rc=2pass / mbtree=0 / bitrate=18457 / ratetol=1.0 / qcomp=0.60 / qpmin=0 / qpmax=69 / qpstep=4 / cplxblur=20.0 / qblur=0.5 / vbv_maxrate=50000 / vbv_bufsize=62500 / nal_hrd=none / filler=0 / ip_ratio=1.40 / pb_ratio=1.30 / aq=3:0.80
Language : English
Default : Yes
Forced : No

Audio #1
ID : 2
Format : AC-3
Format/Info : Audio Coding 3
Format settings, Endianness : Big
Codec ID : A_AC3
Duration : 1 h 29 min
Bit rate mode : Constant
Bit rate : 384 kb/s
Channel(s) : 6 channels
Channel positions : Front: L C R, Side: L R, LFE
Sampling rate : 48.0 kHz
Frame rate : 31.250 FPS (1536 spf)
Bit depth : 16 bits
Compression mode : Lossy
Stream size : 245 MiB (2%)
Title : iTunes
Language : Russian
Service kind : Complete Main
Default : Yes
Forced : No

Audio #2
ID : 3
Format : DTS
Format/Info : Digital Theater Systems
Mode : 16
Format settings, Endianness : Big
Codec ID : A_DTS
Duration : 1 h 29 min
Bit rate mode : Constant
Bit rate : 1 509 kb/s
Channel(s) : 6 channels
Channel positions : Front: L C R, Side: L R, LFE
Sampling rate : 48.0 kHz
Frame rate : 93.750 FPS (512 spf)
Bit depth : 24 bits
Compression mode : Lossy
Stream size : 962 MiB (7%)
Title : Original
Language : French
Default : No
Forced : No

Text
ID : 4
Format : UTF-8
Codec ID : S_TEXT/UTF8
Codec ID/Info : UTF-8 Plain Text
Duration : 20 s 666 ms
Bit rate : 119 b/s
Count of elements : 7
Stream size : 308 Bytes (0%)
Title : Forced
Language : French
Default : No
Forced : No

Menu
00:00:00.000 : en:00:00:00.000
00:07:35.333 : en:00:07:35.333
00:15:44.208 : en:00:15:44.208
00:20:42.583 : en:00:20:42.583
00:28:32.500 : en:00:28:32.500
00:36:59.292 : en:00:36:59.292
00:43:03.208 : en:00:43:03.208
00:53:31.833 : en:00:53:31.833
01:00:57.458 : en:01:00:57.458
01:07:43.250 : en:01:07:43.250
01:16:11.167 : en:01:16:11.167
01:21:13.708 : en:01:21:13.708



Скачать SuperАлиби.Alibi.com.(Филипп.Лашо).[2017.комедия.BDRip].[1080p].[Dub.(лицензия.iTunes)]+[Eng]+[Sub.Fre].torrent без регистрации
Золото ЗОЛОТАЯ РАЗДАЧА! СКАЧАННОЕ НЕ ЗАСЧИТЫВАЕТСЯ! Золото
Дата: Зарегистрирован   [ Тип: внутренний ] Как тут cкачать?
MAGNET ссылка
MAGNET ссылка


Скачать .torrent

64 KB

Статус: проверено DHT
Скачан: торрент - 566 раз, раздача полностью - 217 раз
Размер: 12,67 GB
Оценка:  5 (Голосов: 1)
Поблагодарили: 17
Поделиться ссылкой на эту раздачу с друзьями:
В контактеFacebookОдноклассникиTwitterLivejournalМой МирLiveinternet
 

 
Показать сообщения:    


Вы не можете начинать темы
Вы не можете отвечать на сообщения
Вы не можете редактировать свои сообщения
Вы не можете удалять свои сообщения
Вы не можете голосовать в опросах
Вы не можете прикреплять файлы к сообщениям
Вы можете скачивать файлы