Loading...
Error

Скачать Последний из могикан / The Last of the Mohicans (Майкл Манн) [1992, боевик, драма, мелодрама, приключения, военный, BDRip] [720p] [Director's Definitive Cut] [Dub]+[MVO]x2+[DVO]x2+[Оригинал]+[Sub]x2 торрент без регистрации

Статистика раздачи
Размер:  6,34 GB   |    Скачан:  19 раз
Сидов:  1  [  0 KB/s  ]  
 
 
 
Автор Сообщение

Marsianka

[] 

Последний из могикан

The Last of the Mohicans

«The first American hero»

Страна: США
Жанр: боевик, драма, мелодрама, приключения, военный
Год выпуска: 1992
Продолжительность: 01:54:33
Перевод: Профессиональный (полное дублирование), 2 x Профессиональный (многоголосый, закадровый), 2 x Профессиональный (двухголосый, закадровый), Оригинальный
Субтитры: русские, английские.
Режиссер: Майкл Манн / Michael Mann
В ролях: Дэниэл Дэй-Льюис (Hawkeye (Nathaniel Poe)), Мэделин Стоу (Cora Munro), Рассел Минс (Chingachgook), Эрик Швейг (Uncas), Джоди Мэй (Alice Munro), Стивен Вэддингтон (Maj. Duncan Heyward), Уэс Стьюди (Magua), Морис Роевз (Col. Edmund Munro), Патрис Шеро (Gen Montcalm), Эдвард Блэтчфорд (Jack Winthrop), Терри Кинни (John Cameron), Трейси Эллис (Alexandra Cameron)
Дублёры: Александр Новиков (Hawkeye (Nathaniel Poe)), Любовь Германова (Cora Munro), Алексей Борзунов (Chingachgook; Gen Montcalm), Вадим Курков (Uncas), Елена Борзунова (Alice Munro), Андрей Ташков (Maj. Duncan Heyward), Всеволод Кузнецов (Magua), Леонид Белозорович (Col. Edmund Munro), Владимир Конкин (Jack Winthrop), Юрий Меншагин (John Cameron)
Описание: 1757 год. Англо-французская война за американские колонии в самом разгаре. Дочери полковника Манро пытаются пробраться в осажденный французами английский форт. Им на помощь приходит молодой белый охотник Соколиный Глаз. Между Соколиным Глазом, выросшим среди индейцев племени могикан, и старшей из дочерей, утонченной Корой, вспыхивает взаимное чувство. Но Кора и ее сестра попадают в плен к союзникам французов - гуронам, и от мучительной смерти их могут спасти только Соколиный Глаз и его верные друзья - индейцы...

MPAA: R - Лицам до 17 лет обязательно присутствие взрослого
Семпл
Качество: BDRip
Контейнер: MKV

Видео: AVC, 1280x534 (2.40:1), 6000 kbps, 23,976 fps, 0,366 bpp
Аудио №1: русский / AC3 / 2.0 / 48 kHz / 256 kbps / Дубляж ( со вставками многоголосого )
Аудио №2: русский / AC3 / 5.1 / 48 kHz / 448 kbps / MVO
Аудио №3: русский / AC3 / 2.0 / 48 kHz / 192 kbps / MVO ( CTC )
Аудио №4: русский / AC3 / 2.0 / 48 kHz / 192 kbps / DVO ( Екатеринбург Арт )
Аудио №5: русский / AC3 / 2.0 / 48 kHz / 192 kbps / DVO ( SDI Media )
Аудио №6: английский / AC3 / 5.1 / 48 kHz / 640 kbps
Навигация по главам: есть


--------------------------------------------------------------------------------------------------------------------------
x264 [info]: frame I:1072 Avg QP:12.96 size:125260
x264 [info]: frame P:32881 Avg QP:15.45 size: 56753
x264 [info]: frame B:130835 Avg QP:17.12 size: 24093
--------------------------------------------------------------------------------------------------------------------------
Format : Matroska
Format version : Version 2
File size : 6.34 GiB
Duration : 1h 54mn
Overall bit rate : 7 921 Kbps
Movie name : = Последний из могикан / The Last of the Mohicans (1992) BDRip 720p by SC Kosmos =
Encoded date : UTC 2016-05-03 09:33:22
Writing application : mkvmerge v5.8.0 ('No Sleep / Pillow') built on Sep 2 2012 15:37:04
Writing library : libebml v1.2.3 + libmatroska v1.3.0
Attachment : Yes

Video
ID : 1
Format : AVC
Format/Info : Advanced Video Codec
Format profile : High@L4.1
Format settings, CABAC : Yes
Format settings, ReFrames : 10 frames
Codec ID : V_MPEG4/ISO/AVC
Duration : 1h 54mn
Bit rate : 6 000 Kbps
Width : 1 280 pixels
Height : 534 pixels
Display aspect ratio : 2.40:1
Frame rate : 23.976 fps
Color space : YUV
Chroma subsampling : 4:2:0
Bit depth : 8 bits
Scan type : Progressive
Bits/(Pixel*Frame) : 0.366
Stream size : 4.68 GiB (74%)
Title : Последний из могикан / The Last of the Mohicans (1992) BDRip 720p by SC Kosmos
Writing library : x264 core 146 r2538 121396c
Encoding settings : cabac=1 / ref=10 / deblock=1:-3:-3 / analyse=0x3:0x113 / me=umh / subme=11 / psy=1 / psy_rd=1.00:0.00 / mixed_ref=1 / me_range=32 / chroma_me=1 / trellis=2 / 8x8dct=1 / cqm=0 / deadzone=21,11 / fast_pskip=0 / chroma_qp_offset=-2 / threads=12 / lookahead_threads=3 / sliced_threads=0 / nr=0 / decimate=0 / interlaced=0 / bluray_compat=0 / constrained_intra=0 / bframes=10 / b_pyramid=2 / b_adapt=2 / b_bias=0 / direct=3 / weightb=1 / open_gop=0 / weightp=2 / keyint=240 / keyint_min=23 / scenecut=40 / intra_refresh=0 / rc=2pass / mbtree=0 / bitrate=6000 / ratetol=1.0 / qcomp=0.60 / qpmin=0 / qpmax=69 / qpstep=4 / cplxblur=20.0 / qblur=0.5 / ip_ratio=1.40 / pb_ratio=1.30 / aq=1:1.00
Language : English
Default : Yes
Forced : No

Audio #1
ID : 2
Format : AC-3
Format/Info : Audio Coding 3
Mode extension : CM (complete main)
Codec ID : A_AC3
Duration : 1h 54mn
Bit rate mode : Constant
Bit rate : 256 Kbps
Channel(s) : 2 channels
Channel positions : Front: L R
Sampling rate : 48.0 KHz
Bit depth : 16 bits
Compression mode : Lossy
Stream size : 210 MiB (3%)
Title : Дубляж ( со вставками многоголосого )
Language : Russian
Default : Yes
Forced : No

Audio #2
ID : 3
Format : AC-3
Format/Info : Audio Coding 3
Mode extension : CM (complete main)
Codec ID : A_AC3
Duration : 1h 54mn
Bit rate mode : Constant
Bit rate : 448 Kbps
Channel(s) : 6 channels
Channel positions : Front: L C R, Side: L R, LFE
Sampling rate : 48.0 KHz
Bit depth : 16 bits
Compression mode : Lossy
Stream size : 367 MiB (6%)
Title : MVO
Language : Russian
Default : No
Forced : No

Audio #3
ID : 4
Format : AC-3
Format/Info : Audio Coding 3
Mode extension : CM (complete main)
Codec ID : A_AC3
Duration : 1h 54mn
Bit rate mode : Constant
Bit rate : 192 Kbps
Channel(s) : 2 channels
Channel positions : Front: L R
Sampling rate : 48.0 KHz
Bit depth : 16 bits
Compression mode : Lossy
Stream size : 157 MiB (2%)
Title : MVO ( CTC )
Language : Russian
Default : No
Forced : No

Audio #4
ID : 5
Format : AC-3
Format/Info : Audio Coding 3
Mode extension : CM (complete main)
Codec ID : A_AC3
Duration : 1h 54mn
Bit rate mode : Constant
Bit rate : 192 Kbps
Channel(s) : 2 channels
Channel positions : Front: L R
Sampling rate : 48.0 KHz
Bit depth : 16 bits
Compression mode : Lossy
Stream size : 157 MiB (2%)
Title : DVO ( Екатеринбург Арт )
Language : Russian
Default : No
Forced : No

Audio #5
ID : 6
Format : AC-3
Format/Info : Audio Coding 3
Mode extension : CM (complete main)
Codec ID : A_AC3
Duration : 1h 54mn
Bit rate mode : Constant
Bit rate : 192 Kbps
Channel(s) : 2 channels
Channel positions : Front: L R
Sampling rate : 48.0 KHz
Bit depth : 16 bits
Compression mode : Lossy
Stream size : 157 MiB (2%)
Title : DVO ( SDI Media )
Language : Russian
Default : No
Forced : No

Audio #6
ID : 7
Format : AC-3
Format/Info : Audio Coding 3
Mode extension : CM (complete main)
Codec ID : A_AC3
Duration : 1h 54mn
Bit rate mode : Constant
Bit rate : 640 Kbps
Channel(s) : 6 channels
Channel positions : Front: L C R, Side: L R, LFE
Sampling rate : 48.0 KHz
Bit depth : 16 bits
Compression mode : Lossy
Stream size : 524 MiB (8%)
Language : English
Default : No
Forced : No

Text #1
ID : 8
Format : UTF-8
Codec ID : S_TEXT/UTF8
Codec ID/Info : UTF-8 Plain Text
Title : Forced
Language : Russian
Default : Yes
Forced : Yes

Text #2
ID : 9
Format : UTF-8
Codec ID : S_TEXT/UTF8
Codec ID/Info : UTF-8 Plain Text
Language : Russian
Default : No
Forced : No

Text #3
ID : 10
Format : UTF-8
Codec ID : S_TEXT/UTF8
Codec ID/Info : UTF-8 Plain Text
Language : English
Default : No
Forced : No

Menu
00:00:00.000 : en:00:00:00.000
00:01:55.365 : en:00:01:55.365
00:04:29.060 : en:00:04:29.060
00:06:48.241 : en:00:06:48.241
00:08:43.273 : en:00:08:43.273
00:12:32.961 : en:00:12:32.961
00:14:55.103 : en:00:14:55.103
00:22:15.668 : en:00:22:15.668
00:24:32.930 : en:00:24:32.930
00:28:11.940 : en:00:28:11.940
00:33:58.411 : en:00:33:58.411
00:43:30.316 : en:00:43:30.316
00:45:41.739 : en:00:45:41.739
00:47:19.378 : en:00:47:19.378
00:48:52.888 : en:00:48:52.888
00:52:03.579 : en:00:52:03.579
00:54:33.353 : en:00:54:33.353
00:57:42.668 : en:00:57:42.668
01:00:09.523 : en:01:00:09.523
01:03:15.291 : en:01:03:15.291
01:07:43.726 : en:01:07:43.726
01:10:35.022 : en:01:10:35.022
01:12:41.065 : en:01:12:41.065
01:18:58.776 : en:01:18:58.776
01:22:16.890 : en:01:22:16.890
01:24:50.544 : en:01:24:50.544
01:31:29.609 : en:01:31:29.609
01:34:46.806 : en:01:34:46.806
01:39:30.131 : en:01:39:30.131
01:44:30.931 : en:01:44:30.931
01:46:38.517 : en:01:46:38.517
01:49:18.385 : en:01:49:18.385


За русские дороги: Огромное СПАСИБО - Flynn82 и HQCLUB.



Скачать Последний.из.могикан.The.Last.of.the.Mohicans.(Майкл.Манн).[1992.боевик.драма.мелодрама.приключения.военный.BDRip].[720p].[Director's.Definitive.Cut].[Dub]+[MVO]x2+[DVO]x2+[Оригинал]+[Sub]x2.torrent без регистрации
Золото ЗОЛОТАЯ РАЗДАЧА! СКАЧАННОЕ НЕ ЗАСЧИТЫВАЕТСЯ! Золото
Дата: Зарегистрирован   [ Тип: внутренний ] Как тут cкачать?
MAGNET ссылка
MAGNET ссылка


Скачать .torrent

33 KB

Статус: проверено DHT
Скачан: торрент - 19 раз, раздача полностью - 12 раз
Размер: 6,34 GB
Оценка:  5 (Голосов: 1)
Поблагодарили: 2
Поделиться ссылкой на эту раздачу с друзьями:
В контактеFacebookОдноклассникиTwitterLivejournalМой МирLiveinternet
 

 
Показать сообщения:    


Вы не можете начинать темы
Вы не можете отвечать на сообщения
Вы не можете редактировать свои сообщения
Вы не можете удалять свои сообщения
Вы не можете голосовать в опросах
Вы не можете прикреплять файлы к сообщениям
Вы можете скачивать файлы