Loading...
Error

Скачать Спасти рядового Райана / Saving Private Ryan (Стивен Спилберг) [1998, боевик, драма, военный, BDRip-HEVC] [1080p] [Dub (лицензия)]+[Оригинал]+[Sub]x2 торрент без регистрации

Статистика раздачи
Размер:  14,43 GB   |    Скачан:  20 раз

Полного источника не было: 26 минут

 
 
 
Автор Сообщение

Marsianka

[] 

Информация о фильме
Название: Спасти рядового Райана
Оригинальное название: Saving Private Ryan
Год выхода: 1998
Жанр: боевик, драма, военный
Режиссер: Стивен Спилберг
В ролях: Том Хэнкс , Том Сайзмор , Эдвард Бёрнс , Барри Пеппер , Адам Голдберг , Вин Дизель , Джованни Рибизи , Джереми Дэвис , Мэтт Дэймон , Тед Дэнсон , Пол Джаматти , Деннис Фарина

О фильме:
Капитан Джон Миллер получает тяжелое задание. Вместе с отрядом из восьми человек Миллер должен отправиться в тыл врага на поиски рядового Джеймса Райана, три родных брата которого почти одновременно погибли на полях сражений.
Командование приняло решение демобилизовать Райана и отправить его на родину к безутешной матери. Но для того, чтобы найти и спасти солдата, крошечному отряду придется пройти через все круги ада...



Страна: США
Продолжительность: 02:48:21
Перевод: Дублированный (лицензия)

Файл
Кодек: HEVC x265
Качество: BDRip-HEVC 1080p
Видео: 1920x1038 (1,85:1), 11000 Кбит/сек, 0.230 бит/(Пиксели*Кадры), 23,976 кадр/сек (24000/1001), HEVC (Main@L.4.1@High)

№1: Russian AC3 5.1 Front: L C R, Side: L R, LFE 48 kHz CBR 640 kbps 16 bit (Дублированный)
№2: English AC3 5.1 Front: L C R, Side: L R, LFE 48 kHz CBR 640 kbps 16 bit (Оригинал)
Субтитры: Русские (форсированные, полные); Английские (полные)
Семпл

Общее
Unique ID : 174894634989630942173670975723234429556 (0x83937B4138311C17BBEBAA63D1A08A74)
Complete name : I:HEVC 2Saving Private Ryan_1998_BDRip_1080p_[HEVC].mkv
Format : Matroska
Format version : Version 4 / Version 2
File size : 14,4 Гбайт
Duration : 2 ч. 48 м.
Overall bit rate : 12,3 Мбит/сек
Encoded date : UTC 2017-04-19 03:49:13
Writing application : mkvmerge v9.7.1 ('Pandemonium') 64bit
Writing library : libebml v1.3.4 + libmatroska v1.4.5
Cover : Yes
Attachments : cover.png
Encoding Gui : Hybrid 2017.04.10.1

Видео
ID : 1
Format : HEVC
Format/Info : High Efficiency Video Coding
Format profile : Main@L4.1@High
Codec ID : V_MPEGH/ISO/HEVC
Duration : 2 ч. 48 м.
Bit rate : 11,0 Мбит/сек
Width : 1920 пикселей
Height : 1038 пикселей
Display aspect ratio : 1,85:1
Frame rate mode : Постоянный
Frame rate : 23,976 (24000/1001) кадра/сек
Color space : YUV
Chroma subsampling : 4:2:0
Bit depth : 8 бит
Bits/(Pixel*Frame) : 0.230
Stream size : 12,9 Гбайт (90%)
Writing library : x265 2.3+30-c7b7c736696f:[Windows][GCC 6.3.0][64 bit] 8bit+10bit+12bit
Encoding settings : cpuid=1173503 / frame-threads=3 / numa-pools=8 / wpp / no-pmode / no-pme / no-psnr / no-ssim / log-level=2 / input-csp=1 / input-res=1920x1038 / interlace=0 / total-frames=0 / level-idc=41 / high-tier=1 / uhd-bd=0 / ref=5 / no-allow-non-conformance / no-repeat-headers / annexb / no-aud / no-hrd / info / hash=0 / no-temporal-layers / open-gop / min-keyint=23 / keyint=250 / bframes=8 / b-adapt=2 / b-pyramid / bframe-bias=0 / rc-lookahead=25 / lookahead-slices=1 / scenecut=40 / no-intra-refresh / ctu=64 / min-cu-size=8 / rect / no-amp / max-tu-size=32 / tu-inter-depth=1 / tu-intra-depth=1 / limit-tu=0 / rdoq-level=2 / dynamic-rd=0.00 / signhide / no-tskip / nr-intra=0 / nr-inter=0 / no-constrained-intra / strong-intra-smoothing / max-merge=3 / limit-refs=3 / limit-modes / me=2 / subme=3 / merange=57 / temporal-mvp / weightp / weightb / no-analyze-src-pics / deblock=0:0 / sao / no-sao-non-deblock / rd=3 / no-early-skip / rskip / no-fast-intra / no-tskip-fast / no-cu-lossless / no-b-intra / rdpenalty=0 / psy-rd=2.00 / psy-rdoq=0.00 / no-rd-refine / analysis-mode=0 / no-lossless / cbqpoffs=0 / crqpoffs=0 / rc=crf / crf=20.0 / qcomp=0.60 / qpstep=4 / stats-write=0 / stats-read=0 / vbv-maxrate=50000 / vbv-bufsize=50000 / vbv-init=0.9 / crf-max=0.0 / crf-min=0.0 / ipratio=1.40 / pbratio=1.30 / aq-mode=1 / aq-strength=1.00 / cutree / zone-count=0 / no-strict-cbr / qg-size=32 / no-rc-grain / qpmax=69 / qpmin=0 / sar=0 / overscan=0 / videoformat=5 / range=0 / colorprim=2 / transfer=2 / colormatrix=1 / chromaloc=0 / display-window=0 / max-cll=0,0 / min-luma=0 / max-luma=255 / log2-max-poc-lsb=8 / vui-timing-info / vui-hrd-info / slices=1 / opt-qp-pps / opt-ref-list-length-pps / no-multi-pass-opt-rps / scenecut-bias=0.05 / no-opt-cu-delta-qp / no-aq-motion / no-hdr / no-hdr-opt / refine-level=5 / no-limit-sao
Default : Да
Forced : Да
Color range : Limited
Matrix coefficients : BT.709

Аудио #1
ID : 2
Format : AC-3
Format/Info : Audio Coding 3
Format settings, Endianness : Big
Codec ID : A_AC3
Duration : 2 ч. 48 м.
Bit rate mode : Постоянный
Bit rate : 640 Кбит/сек
Channel(s) : 6 каналов
Channel positions : Front: L C R, Side: L R, LFE
Sampling rate : 48,0 КГц
Frame rate : 31,250 кадров/сек (1536 spf)
Bit depth : 16 бит
Compression mode : С потерями
Stream size : 771 Мбайт (5%)
Title : DUB
Language : Russian
Service kind : Complete Main
Default : Да
Forced : Нет

Аудио #2
ID : 3
Format : AC-3
Format/Info : Audio Coding 3
Format settings, Endianness : Big
Codec ID : A_AC3
Duration : 2 ч. 48 м.
Bit rate mode : Постоянный
Bit rate : 640 Кбит/сек
Channel(s) : 6 каналов
Channel positions : Front: L C R, Side: L R, LFE
Sampling rate : 48,0 КГц
Frame rate : 31,250 кадров/сек (1536 spf)
Bit depth : 16 бит
Compression mode : С потерями
Stream size : 771 Мбайт (5%)
Language : English
Service kind : Complete Main
Default : Нет
Forced : Нет

Текст #1
ID : 4
Format : UTF-8
Codec ID : S_TEXT/UTF8
Codec ID/Info : UTF-8 Plain Text
Duration : 2 ч. 43 м.
Bit rate : 3 бит/сек
Count of elements : 106
Stream size : 4,59 Кбайт (0%)
Title : Forced
Language : Russian
Default : Да
Forced : Нет

Текст #2
ID : 5
Format : UTF-8
Codec ID : S_TEXT/UTF8
Codec ID/Info : UTF-8 Plain Text
Duration : 2 ч. 37 м.
Bit rate : 87 бит/сек
Count of elements : 2365
Stream size : 101 Кбайт (0%)
Language : Russian
Default : Нет
Forced : Нет

Текст #3
ID : 6
Format : UTF-8
Codec ID : S_TEXT/UTF8
Codec ID/Info : UTF-8 Plain Text
Duration : 2 ч. 37 м.
Bit rate : 53 бит/сек
Count of elements : 1677
Stream size : 61,9 Кбайт (0%)
Language : English
Default : Нет
Forced : Нет

Меню
00:00:00.000 : en:00:00:00.000
00:03:48.353 : en:00:03:48.353
00:13:04.990 : en:00:13:04.990
00:18:14.800 : en:00:18:14.800
00:26:11.403 : en:00:26:11.403
00:35:29.710 : en:00:35:29.710
00:45:05.452 : en:00:45:05.452
00:56:57.371 : en:00:56:57.371
01:04:44.255 : en:01:04:44.255
01:13:03.752 : en:01:13:03.752
01:16:59.988 : en:01:16:59.988
01:23:22.997 : en:01:23:22.997
01:34:47.640 : en:01:34:47.640
01:46:01.104 : en:01:46:01.104
01:58:53.457 : en:01:58:53.457
02:06:43.511 : en:02:06:43.511
02:16:29.514 : en:02:16:29.514
02:26:12.305 : en:02:26:12.305
02:32:00.653 : en:02:32:00.653
02:41:56.832 : en:02:41:56.832



Скачать Спасти.рядового.Райана.Saving.Private.Ryan.(Стивен.Спилберг).[1998.боевик.драма.военный.BDRip-HEVC].[1080p].[Dub.(лицензия)]+[Оригинал]+[Sub]x2.torrent без регистрации
Золото ЗОЛОТАЯ РАЗДАЧА! СКАЧАННОЕ НЕ ЗАСЧИТЫВАЕТСЯ! Золото
Дата: Зарегистрирован   [ Тип: внутренний ] Как тут cкачать?
MAGNET ссылка
MAGNET ссылка


Скачать .torrent

37 KB

Статус: проверено DHT
Скачан: торрент - 20 раз, раздача полностью - 17 раз
Размер: 14,43 GB
Оценка:  5 (Голосов: 1)
Поблагодарили: 1
Поделиться ссылкой на эту раздачу с друзьями:
В контактеFacebookОдноклассникиTwitterLivejournalМой МирLiveinternet
 

 
Показать сообщения:    


Вы не можете начинать темы
Вы не можете отвечать на сообщения
Вы не можете редактировать свои сообщения
Вы не можете удалять свои сообщения
Вы не можете голосовать в опросах
Вы не можете прикреплять файлы к сообщениям
Вы можете скачивать файлы