Loading...
Error

Скачать Старик Хоттабыч (Геннадий Казанский) [1956, фэнтези, семейный, экранизация, BDRip] [1080p] торрент без регистрации

Статистика раздачи
Размер:  5,98 GB   |    Скачан:  68 раз
Сидов:  1  [  0 KB/s  ]  
 
 
 
Автор Сообщение

Marsianka

[] 

Информация о фильме
Название: Старик Хоттабыч
Год выхода: 1956
Жанр: фэнтези, семейный, экранизация
Режиссер: Геннадий Казанский
В ролях: Николай Волков ст., Алексей Литвинов, Геннадий Худяков, Лев Ковальчук, Вера Рамонова, Майя Блинова, Ольга Черкасова, Ефим Копелян, Александр Лариков, Евгений Весник, Борис Коковкин, Анатолий Королькевич, Всеволод Кузнецов, Зинаида Шарко, Василий Леонов

О фильме:
12-летний московский школьник Волька, купаясь в Москва-реке, находит какой-то древний запечатанный сосуд. Мальчишеское любопытство настолько сильно, что при первом же удобном случае Волька вскрывает его, и из сосуда появляется сказочный джинн — Гассан Абдурахман ибн Хоттаб. За то, что Волька спас его от двухтысячелетнего заточения, джинн, прозванный мальчиком Хоттабычем, становится его верным слугой. Он пытается задарить мальчика, пригнав к его дому целый караван верблюдов с несметными сокровищами. Вместе они совершат увлекательный полет в Индию на волшебном ковре-самолете…



Страна: СССР
Студия: Ленфильм
Продолжительность: 01:24:20
Перевод: 01:24:20

Файл
Кодек: h.264
Качество: BDRip 1080p
Видео: MPEG-4 AVC, 1424x1080, 9700 Кбит/с, 23.976 кадр/с
Звук: Аудио #1: Русский ( AC3, 6ch, 448 Кбит/с, 48.0 KHz)
Субтитры: Отсутствуют
Семпл
General
Unique ID : 186552158790806372654915977710824944032 (0x8C58A38DACA4E6E486671D3D73DD71A0)
Complete name : Starik.Hottabych.1956.BDRip.1080p.mkv
Format : Matroska
Format version : Version 4 / Version 2
File size : 5.98 GiB
Duration : 1 h 24 min
Overall bit rate : 10.2 Mb/s
Encoded date : UTC 2017-05-11 22:10:18
Writing application : mkvmerge v7.8.0 ('River Man') 64bit built on Mar 27 2015 16:31:37
Writing library : libebml v1.3.1 + libmatroska v1.4.2
Cover : Yes
Attachments : cover.jpg

Video
ID : 1
Format : AVC
Format/Info : Advanced Video Codec
Format profile : High@L4.1
Format settings, CABAC : Yes
Format settings, ReFrames : 4 frames
Codec ID : V_MPEG4/ISO/AVC
Duration : 1 h 24 min
Bit rate : 9 700 kb/s
Width : 1 424 pixels
Height : 1 080 pixels
Display aspect ratio : 4:3
Frame rate mode : Constant
Frame rate : 23.976 (24000/1001) FPS
Color space : YUV
Chroma subsampling : 4:2:0
Bit depth : 8 bits
Scan type : Progressive
Bits/(Pixel*Frame) : 0.263
Stream size : 5.71 GiB (96%)
Title : Video-H264
Writing library : x264 core 146 r2538 121396c
Encoding settings : cabac=1 / ref=4 / deblock=1:-3:-3 / analyse=0x3:0x133 / me=umh / subme=11 / psy=1 / psy_rd=1.00:0.00 / mixed_ref=1 / me_range=32 / chroma_me=1 / trellis=2 / 8x8dct=1 / cqm=0 / deadzone=21,11 / fast_pskip=1 / chroma_qp_offset=-2 / threads=6 / lookahead_threads=1 / sliced_threads=0 / nr=0 / decimate=1 / interlaced=0 / bluray_compat=0 / constrained_intra=0 / bframes=10 / b_pyramid=2 / b_adapt=2 / b_bias=0 / direct=3 / weightb=1 / open_gop=0 / weightp=2 / keyint=250 / keyint_min=23 / scenecut=40 / intra_refresh=0 / rc_lookahead=60 / rc=2pass / mbtree=1 / bitrate=9700 / ratetol=1.0 / qcomp=0.60 / qpmin=0 / qpmax=69 / qpstep=4 / cplxblur=20.0 / qblur=0.5 / ip_ratio=1.40 / aq=1:1.00
Language : Russian
Default : Yes
Forced : No

Audio
ID : 2
Format : AC-3
Format/Info : Audio Coding 3
Mode extension : CM (complete main)
Format settings, Endianness : Big
Codec ID : A_AC3
Duration : 1 h 24 min
Bit rate mode : Constant
Bit rate : 448 kb/s
Channel(s) : 6 channels
Channel positions : Front: L C R, Side: L R, LFE
Sampling rate : 48.0 kHz
Frame rate : 31.250 FPS (1536 spf)
Bit depth : 16 bits
Compression mode : Lossy
Stream size : 270 MiB (4%)
Title : Audio Dolby AC3 48000Hz 6ch 448kbps
Language : Russian
Default : Yes
Forced : No

Menu
00:00:00.000 : en:Chapter 1
00:02:28.898 : en:Chapter 2
00:08:47.401 : en:Chapter 3
00:13:23.928 : en:Chapter 4
00:20:18.717 : en:Chapter 5
00:29:09.247 : en:Chapter 6
00:37:14.106 : en:Chapter 7
00:42:00.017 : en:Chapter 8
00:44:18.280 : en:Chapter 9
00:55:38.335 : en:Chapter 10
00:59:22.308 : en:Chapter 11
01:07:24.040 : en:Chapter 12
01:08:39.115 : en:Chapter 13
01:19:06.616 : en:Chapter 14
01:22:31.821 : en:Chapter 15
01:24:12.547 : en:Chapter 16



Скачать Старик.Хоттабыч.(Геннадий.Казанский).[1956.фэнтези.семейный.экранизация.BDRip].[1080p].torrent без регистрации
Золото ЗОЛОТАЯ РАЗДАЧА! СКАЧАННОЕ НЕ ЗАСЧИТЫВАЕТСЯ! Золото
Дата: Зарегистрирован   [ Тип: внутренний ] Как тут cкачать?
MAGNET ссылка
MAGNET ссылка


Скачать .torrent

16 KB

Статус: проверено DHT
Скачан: торрент - 68 раз, раздача полностью - 29 раз
Размер: 5,98 GB
Оценка:  5 (Голосов: 1)
Поблагодарили: 1
Поделиться ссылкой на эту раздачу с друзьями:
В контактеFacebookОдноклассникиTwitterLivejournalМой МирLiveinternet
 

 
Показать сообщения:    


Вы не можете начинать темы
Вы не можете отвечать на сообщения
Вы не можете редактировать свои сообщения
Вы не можете удалять свои сообщения
Вы не можете голосовать в опросах
Вы не можете прикреплять файлы к сообщениям
Вы можете скачивать файлы