Loading...
Error

Скачать Солдат / Soldier (Пол У. С. Андерсон) [1998, фантастика, боевик, драма, BDRip-HEVC] [1080p] [Dub]+[Оригинал]+[Sub]x2 торрент без регистрации

Статистика раздачи
Размер:  4,19 GB   |    Скачан:  17 раз
Сидов:  1  [  0 KB/s  ]  
 
 
 
Автор Сообщение

Marsianka

[] 

Информация о фильме
Название: Солдат
Оригинальное название: Soldier
Год выхода: 1998
Жанр: фантастика, боевик, драма
Режиссер: Пол У. С. Андерсон
В ролях: Курт Рассел, Джейсон Скотт Ли, Джейсон Айзекс, Конни Нильсен, Шон Пертуи, Джаред Торн, Тейлор Торн, Марк Бринглсон, Гэри Бьюзи, К.К. Доддс

О фильме:
… Солдат забирают в армию чуть ли не с пеленок. Ребенок попадает в школу военных, где без родителей и всяких скидок на детство из отобранного человеческого материала готовят профессиональных солдат. Одним из таких солдат становится Тодд.



Страна: Великобритания, США
Продолжительность: 01:38:36
Перевод: Дубляж

Файл
Кодек: HEVC 10bit
Качество: BDRip 1080p
Видео: 1920x800 at 23.976 fps, x265@Main 10@L4@Main, crf, ~5048 kbps avg

1: Russian: 48 kHz, AC-3, 3/2 (L,C,R,l,r) + LFE ch, ~384 kbps avg | Dub
2: English: 48 kHz, AC-3, 3/2 (L,C,R,l,r) + LFE ch, ~640 kbps avg | Original
Субтитры: Russian (Full), English (Full)
General
Unique ID : 206908586678362012601311791108231887063 (0x9BA924EFC2F0B61A8F47AF496D8D78D7)
Complete name : Солдат.1998.HEVC.mkv
Format : Matroska
Format version : Version 4 / Version 2
File size : 4.19 GiB
Duration : 1h 38mn
Overall bit rate : 6 076 Kbps
Movie name : Soldier
Encoded date : UTC 2017-05-13 19:52:12
Writing application : mkvmerge v9.5.0 ('Quiet Fire') 64bit
Writing library : libebml v1.3.4 + libmatroska v1.4.5

Video
ID : 1
Format : HEVC
Format/Info : High Efficiency Video Coding
Format profile : Main 10@L4@Main
Codec ID : V_MPEGH/ISO/HEVC
Duration : 1h 38mn
Bit rate : 5 050 Kbps
Width : 1 920 pixels
Height : 800 pixels
Display aspect ratio : 2.40:1
Frame rate mode : Constant
Frame rate : 23.976 (24000/1001) fps
Color space : YUV
Chroma subsampling : 4:2:0
Bit depth : 10 bits
Bits/(Pixel*Frame) : 0.137
Stream size : 3.48 GiB (83%)
Title : HEVC
Writing library : x265 2.3+27-7e137e3ae083:[Windows][GCC 5.3.1][64 bit] 10bit
Encoding settings : cpuid=1173503 / frame-threads=2 / numa-pools=4 / wpp / no-pmode / no-pme / no-psnr / no-ssim / log-level=2 / input-csp=1 / input-res=1920x800 / interlace=0 / total-frames=0 / level-idc=0 / high-tier=1 / uhd-bd=0 / ref=4 / no-allow-non-conformance / no-repeat-headers / annexb / no-aud / no-hrd / info / hash=0 / no-temporal-layers / open-gop / min-keyint=23 / keyint=250 / bframes=4 / b-adapt=2 / b-pyramid / bframe-bias=0 / rc-lookahead=30 / lookahead-slices=0 / scenecut=40 / no-intra-refresh / ctu=64 / min-cu-size=8 / no-rect / no-amp / max-tu-size=32 / tu-inter-depth=1 / tu-intra-depth=1 / limit-tu=0 / rdoq-level=2 / dynamic-rd=0.00 / signhide / no-tskip / nr-intra=0 / nr-inter=0 / no-constrained-intra / no-strong-intra-smoothing / max-merge=3 / limit-refs=0 / no-limit-modes / me=3 / subme=5 / merange=57 / temporal-mvp / weightp / weightb / no-analyze-src-pics / no-deblock / no-sao / no-sao-non-deblock / rd=4 / no-early-skip / no-rskip / no-fast-intra / no-tskip-fast / no-cu-lossless / no-b-intra / rdpenalty=0 / psy-rd=1.00 / psy-rdoq=1.00 / no-rd-refine / analysis-mode=0 / no-lossless / cbqpoffs=0 / crqpoffs=0 / rc=crf / crf=20.0 / qcomp=0.60 / qpstep=4 / stats-write=0 / stats-read=0 / ipratio=1.40 / pbratio=1.30 / aq-mode=1 / aq-strength=1.00 / no-cutree / zone-count=0 / no-strict-cbr / qg-size=32 / no-rc-grain / qpmax=69 / qpmin=0 / sar=0 / overscan=0 / videoformat=5 / range=0 / colorprim=2 / transfer=2 / colormatrix=2 / chromaloc=0 / display-window=0 / max-cll=0,0 / min-luma=0 / max-luma=1023 / log2-max-poc-lsb=8 / vui-timing-info / vui-hrd-info / slices=1 / opt-qp-pps / opt-ref-list-length-pps / no-multi-pass-opt-rps / scenecut-bias=0.05 / no-opt-cu-delta-qp / aq-motion / no-hdr / no-hdr-opt / refine-level=5
Default : Yes
Forced : No

Audio #1
ID : 2
Format : AC-3
Format/Info : Audio Coding 3
Mode extension : CM (complete main)
Format settings, Endianness : Big
Codec ID : A_AC3
Duration : 1h 38mn
Bit rate mode : Constant
Bit rate : 384 Kbps
Channel(s) : 6 channels
Channel positions : Front: L C R, Side: L R, LFE
Sampling rate : 48.0 KHz
Frame rate : 31.250 fps (1536 spf)
Compression mode : Lossy
Stream size : 271 MiB (6%)
Title : Dub
Language : Russian
Default : Yes
Forced : No

Audio #2
ID : 3
Format : AC-3
Format/Info : Audio Coding 3
Mode extension : CM (complete main)
Format settings, Endianness : Big
Codec ID : A_AC3
Duration : 1h 38mn
Bit rate mode : Constant
Bit rate : 640 Kbps
Channel(s) : 6 channels
Channel positions : Front: L C R, Side: L R, LFE
Sampling rate : 48.0 KHz
Frame rate : 31.250 fps (1536 spf)
Compression mode : Lossy
Stream size : 451 MiB (11%)
Title : Original
Language : English
Default : No
Forced : No

Text #1
ID : 4
Format : UTF-8
Codec ID : S_TEXT/UTF8
Codec ID/Info : UTF-8 Plain Text
Duration : 1h 30mn
Bit rate : 34 bps
Count of elements : 561
Stream size : 22.8 KiB (0%)
Title : Full
Language : Russian
Default : No
Forced : No

Text #2
ID : 5
Format : UTF-8
Codec ID : S_TEXT/UTF8
Codec ID/Info : UTF-8 Plain Text
Duration : 1h 37mn
Bit rate : 24 bps
Count of elements : 640
Stream size : 17.7 KiB (0%)
Title : Full
Language : English
Default : No
Forced : No

Menu
00:00:00.000 : en:00:00:00.000
00:05:00.000 : en:00:05:00.000
00:10:00.000 : en:00:10:00.000
00:15:00.000 : en:00:15:00.000
00:20:00.000 : en:00:20:00.000
00:25:00.000 : en:00:25:00.000
00:30:00.000 : en:00:30:00.000
00:35:00.000 : en:00:35:00.000
00:40:00.000 : en:00:40:00.000
00:45:00.000 : en:00:45:00.000
00:50:00.000 : en:00:50:00.000
00:55:00.000 : en:00:55:00.000
01:00:00.000 : en:01:00:00.000
01:05:00.000 : en:01:05:00.000
01:10:00.000 : en:01:10:00.000
01:15:00.000 : en:01:15:00.000
01:20:00.000 : en:01:20:00.000
01:25:00.000 : en:01:25:00.000
01:30:00.000 : en:01:30:00.000
01:35:00.000 : en:01:35:00.000
x265 [info]: HEVC encoder version 2.3+27-7e137e3ae083
x265 [info]: build info [Windows][GCC 5.3.1][64 bit] 10bit
x265 [info]: using cpu capabilities: MMX2 SSE2Fast SSSE3 SSE4.2 AVX AVX2 FMA3 LZCNT BMI2
x265 [info]: Main 10 profile, Level-4 (Main tier)
x265 [info]: Thread pool created using 4 threads
x265 [info]: Slices : 1
x265 [info]: frame threads / pool features : 2 / wpp(13 rows)
x265 [info]: Coding QT: max CU size, min CU size : 64 / 8
x265 [info]: Residual QT: max TU size, max depth : 32 / 1 inter / 1 intra
x265 [info]: ME / range / subpel / merge : star / 57 / 5 / 3
x265 [info]: Keyframe min / max / scenecut / bias: 23 / 250 / 40 / 5.00
x265 [info]: Lookahead / bframes / badapt : 30 / 4 / 2
x265 [info]: b-pyramid / weightp / weightb : 1 / 1 / 1
x265 [info]: References / ref-limit cu / depth : 4 / off / off
x265 [info]: AQ: mode / str / qg-size / cu-tree : 1 / 1.0 / 32 / 0
x265 [info]: Rate Control / qCompress : CRF-20.0 / 0.60
x265 [info]: tools: rd=4 psy-rd=1.00 rdoq=2 psy-rdoq=1.00 signhide tmvp
x265 [info]: frame I: 1774, Avg QP:16.27 kb/s: 14879.84
x265 [info]: frame P: 33030, Avg QP:17.84 kb/s: 8857.66
x265 [info]: frame B: 107056, Avg QP:20.23 kb/s: 3710.94
x265 [info]: Weighted P-Frames: Y:13.3% UV:10.3%
x265 [info]: Weighted B-Frames: Y:14.0% UV:10.0%
x265 [info]: consecutive B-frames: 9.1% 3.5% 5.5% 34.6% 47.3%

encoded 141860 frames in 205132.88s (0.69 fps), 5048.95 kb/s, Avg QP:19.62



Скачать Солдат.Soldier.(Пол.У.С.Андерсон).[1998.фантастика.боевик.драма.BDRip-HEVC].[1080p].[Dub]+[Оригинал]+[Sub]x2.torrent без регистрации
Золото ЗОЛОТАЯ РАЗДАЧА! СКАЧАННОЕ НЕ ЗАСЧИТЫВАЕТСЯ! Золото
Дата: Зарегистрирован   [ Тип: внутренний ] Как тут cкачать?
MAGNET ссылка
MAGNET ссылка


Скачать .torrent

22 KB

Статус: проверено DHT
Скачан: торрент - 17 раз, раздача полностью - 15 раз
Размер: 4,19 GB
Оценка:  5 (Голосов: 1)
Поблагодарили: 2
Поделиться ссылкой на эту раздачу с друзьями:
В контактеFacebookОдноклассникиTwitterLivejournalМой МирLiveinternet
 

 
Показать сообщения:    


Вы не можете начинать темы
Вы не можете отвечать на сообщения
Вы не можете редактировать свои сообщения
Вы не можете удалять свои сообщения
Вы не можете голосовать в опросах
Вы не можете прикреплять файлы к сообщениям
Вы можете скачивать файлы