Loading...
Error

Скачать Избранный / El elegido (Антонио Чаварриас) [2016, триллер, драма, история, BDRip] [720p] [VO (BadBajo)]+[Spa]+[Eng] торрент без регистрации

Статистика раздачи
Размер:  3,53 GB   |    Скачан:  32 раза

Полного источника не было: 20 минут

 
 
 
Автор Сообщение

МихаНЕзатор

[] 



Информация о фильме
Название: Избранный
Оригинальное название: El elegido
Год выхода: 2016
Жанр: триллер, драма, история
Режиссер: Антонио Чаварриас

В ролях: Альфонсо Эррера, Ханна Мюррэй, Генри Гудман, Джулиан Сэндс, Эльвира Мингес, Эмилио Эчеваррия, Фрэнсис Барбер, Алехандро Кальва, Рохер Касамахор, Хавьер Годино

О фильме: Фильм рассказывает о человеке по имени Рамон Меркадер, который был завербован сталинской секретной полицией ГПУ и направлен в Париж под именем Жак Монрар, чтобы там познакомиться с девушкой по имени Сильвия Агелофф. Сильвия работает вместе со Львом Троцким. Позже она перебирается в Мексику. В Мексику отправляется и Рамон, но уже под именем Фрэнк Джексон, чтобы при помощи возлюбленной собирать информацию о враге народа Льве Троцком. Рамон становится единственной надеждой ГПУ на уничтожение "старика".



Страна: Испания, Мексика
Студия: Alebrije Cine y Video, Ibermedia, Institut Català de les Empreses Culturals (ICEC), Instituto de la Cinematografía y de las Artes Audiovisuales (ICAA), Obero Cinematografica, Televisió de Catalunya (TV3), Televisión Española (TVE)
Продолжительность: 02:04:58
Перевод: Любительское, одноголосый ~ BadBajo

Файл
Кодек: MPEG-4 AVC
Качество: BDRip 720p | L1
Видео: 1280x536, 2700kb/s, 24.000fps
Звук:
1] 448kb/s, 6ch, 48000kHz, AC3 [RUS]
2] 448kb/s, 6ch, 48000kHz, AC3 [SPA]
3] 448kb/s, 6ch, 48000kHz, AC3 [ENG]

АНОНСЫ ПОПУЛЯРНЫХ РАЗДАЧ
Общее
Уникальный идентификатор : 244963275906082493525038223711375872967 (0xB84A35F93C1DA4759EEE40EAB6C253C7)
Полное имя : G:MOVIESИзбранный [El elegido] 2016 [BDRip-720p].mkv
Формат : Matroska
Версия формата : Version 4 / Version 2
Размер файла : 3,53 Гбайт
Продолжительность : 2 ч. 4 м.
Общий поток : 4045 Кбит/сек
Дата кодирования : UTC 2017-05-14 00:35:34
Программа кодирования : mkvmerge v9.5.0 ('Quiet Fire') 64bit
Библиотека кодирования : libebml v1.3.4 + libmatroska v1.4.5
DURATION : 02:04:58.912000000
NUMBER_OF_FRAMES : 234341
NUMBER_OF_BYTES : 419939072
_STATISTICS_WRITING_APP : mkvmerge v9.5.0 ('Quiet Fire') 64bit
_STATISTICS_WRITING_DATE_UTC : 2017-05-14 00:35:34
_STATISTICS_TAGS : BPS DURATION NUMBER_OF_FRAMES NUMBER_OF_BYTES
Attachment : Yes

Видео
Идентификатор : 1
Формат : AVC
Формат/Информация : Advanced Video Codec
Профиль формата : High@L4.1
Параметр CABAC формата : Да
Параметр ReFrames формата : 5 кадров
Идентификатор кодека : V_MPEG4/ISO/AVC
Продолжительность : 2 ч. 4 м.
Битрейт : 2700 Кбит/сек
Ширина : 1280 пикселей
Высота : 536 пикселей
Соотношение сторон : 2,40:1
Режим частоты кадров : Постоянный
Частота кадров : 24,000 кадра/сек
Цветовое пространство : YUV
Субдискретизация насыщенности : 4:2:0
Битовая глубина : 8 бит
Тип развёртки : Прогрессивная
Бит/(Пиксели*Кадры) : 0.164
Размер потока : 2,29 Гбайт (65%)
Библиотека кодирования : x264 core 142 r2479 dd79a61
Настройки программы : cabac=1 / ref=5 / deblock=1:-3:-3 / analyse=0x3:0x113 / me=umh / subme=11 / psy=1 / psy_rd=1.10:0.00 / mixed_ref=0 / me_range=24 / chroma_me=1 / trellis=2 / 8x8dct=1 / cqm=0 / deadzone=21,11 / fast_pskip=1 / chroma_qp_offset=-2 / threads=12 / lookahead_threads=1 / sliced_threads=0 / nr=0 / decimate=1 / interlaced=0 / bluray_compat=0 / constrained_intra=0 / bframes=5 / b_pyramid=2 / b_adapt=2 / b_bias=0 / direct=1 / weightb=1 / open_gop=0 / weightp=2 / keyint=240 / keyint_min=24 / scenecut=40 / intra_refresh=0 / rc_lookahead=40 / rc=2pass / mbtree=1 / bitrate=2700 / ratetol=1.0 / qcomp=0.70 / qpmin=0 / qpmax=69 / qpstep=4 / cplxblur=20.0 / qblur=0.5 / vbv_maxrate=62500 / vbv_bufsize=78125 / nal_hrd=none / filler=0 / ip_ratio=1.40 / aq=1:1.10
Default : Да
Forced : Нет
DURATION : 02:04:58.804000000
NUMBER_OF_FRAMES : 179972
NUMBER_OF_BYTES : 2529879916
_STATISTICS_WRITING_APP : mkvmerge v9.5.0 ('Quiet Fire') 64bit
_STATISTICS_WRITING_DATE_UTC : 2017-05-14 00:35:34
_STATISTICS_TAGS : BPS DURATION NUMBER_OF_FRAMES NUMBER_OF_BYTES
Основные цвета : BT.709
Характеристики трансфера : BT.709
Коэффициенты матрицы : BT.709

Аудио #1
Идентификатор : 2
Формат : AC-3
Формат/Информация : Audio Coding 3
Расширение режима : CM (complete main)
Параметр Endianness формата : Big
Идентификатор кодека : A_AC3
Продолжительность : 2 ч. 4 м.
Вид битрейта : Постоянный
Битрейт : 448 Кбит/сек
Каналы : 6 каналов
Расположение каналов : Front: L C R, Side: L R, LFE
Частота : 48,0 КГц
Битовая глубина : 16 бит
Метод сжатия : С потерями
Задержка видео : -83 мс.
Размер потока : 400 Мбайт (11%)
Заголовок : El_Elegido_2016_rus_BadBajo
Язык : Russian
Default : Да
Forced : Да

Аудио #2
Идентификатор : 3
Формат : AC-3
Формат/Информация : Audio Coding 3
Расширение режима : CM (complete main)
Параметр Endianness формата : Big
Идентификатор кодека : A_AC3
Продолжительность : 2 ч. 4 м.
Вид битрейта : Постоянный
Битрейт : 448 Кбит/сек
Каналы : 6 каналов
Расположение каналов : Front: L C R, Side: L R, LFE
Частота : 48,0 КГц
Битовая глубина : 16 бит
Метод сжатия : С потерями
Задержка видео : -83 мс.
Размер потока : 400 Мбайт (11%)
Язык : Spanish
Default : Нет
Forced : Нет

Аудио #3
Идентификатор : 4
Формат : AC-3
Формат/Информация : Audio Coding 3
Расширение режима : CM (complete main)
Параметр Endianness формата : Big
Идентификатор кодека : A_AC3
Продолжительность : 2 ч. 4 м.
Вид битрейта : Постоянный
Битрейт : 448 Кбит/сек
Каналы : 6 каналов
Расположение каналов : Front: L C R, Side: L R, LFE
Частота : 48,0 КГц
Битовая глубина : 16 бит
Метод сжатия : С потерями
Задержка видео : -83 мс.
Размер потока : 400 Мбайт (11%)
Язык : English
Default : Нет
Forced : Нет

Меню
00:00:00.000 : :1
00:09:51.414 : :2
00:20:36.953 : :3
00:29:13.076 : :4
00:38:28.115 : :5
00:47:57.238 : :6
00:55:39.528 : :7
01:05:06.609 : :8
01:14:27.023 : :9
01:23:03.480 : :10
01:32:15.269 : :11
01:41:40.184 : :12
01:49:41.432 : :13
02:00:08.429 : :14



Скачать Избранный.El.elegido.(Антонио.Чаварриас).[2016.триллер.драма.история.BDRip].[720p].[VO.(BadBajo)]+[Spa]+[Eng].torrent без регистрации
Золото ЗОЛОТАЯ РАЗДАЧА! СКАЧАННОЕ НЕ ЗАСЧИТЫВАЕТСЯ! Золото
Дата: Зарегистрирован   [ Тип: внутренний ] Как тут cкачать?
MAGNET ссылка
MAGNET ссылка


Скачать .torrent

19 KB

Статус: проверено DHT
Скачан: торрент - 32 раз, раздача полностью - 125 раз
Размер: 3,53 GB
Оценка:  - (Голосов: 0)
Поблагодарили: 4
Поделиться ссылкой на эту раздачу с друзьями:
В контактеFacebookОдноклассникиTwitterLivejournalМой МирLiveinternet
 

 
Показать сообщения:    


Вы не можете начинать темы
Вы не можете отвечать на сообщения
Вы не можете редактировать свои сообщения
Вы не можете удалять свои сообщения
Вы не можете голосовать в опросах
Вы не можете прикреплять файлы к сообщениям
Вы можете скачивать файлы