Loading...
Error

Скачать Эффект Лазаря / The Lazarus Effect (Дэвид Гелб) [2015, ужасы, триллер, BDRip] [720p] [DUB] [iTunes] [R.G.GoldenShara] торрент без регистрации

Статистика раздачи
Размер:  1,34 GB   |    Скачан:  103 раза

Полного источника не было: 21 день

 
 
 
Автор Сообщение

LORDKILL

[] 


Эффект Лазаря / The Lazarus Effect


Год выпуска: 2015
Выпущено: США / Blumhouse Productions, Chapter One Films, Lionsgate
Жанр: ужасы, триллер
Продолжительность: 01:23:11
Перевод: Профессиональный (полное дублирование)

Режиссер: Дэвид Гелб

В ролях: Марк Дюпласс, Оливия Уайлд, Дональд Гловер, Эван Питерс, Сара Болгер, Рэй Уайз, Скотт Шелдон, Эмили Келавос, Джеймс Эрл, Эми Акино

Описание: Группа студентов разрабатывает так называемую сыворотку "Лазаря", которая может воскрешать из мёртвых. Первый эксперимент они провели на мёртвой собаке и всеобщему удивлению сыворотка сработала. Однако что то пошло не по плану и собака умерла. Ребята решили провести над неё ещё один эксперимент, во время которого аспирантка Зои получила разряд током и умерла. В отчаянии ей вводят сыворотку "Лазаря". Девушка ожила и с ней начали происходить непонятные вещи, девушка уже не такая какой была до смерти.







Качество: BDRip 720p
Формат: MKV
Видео кодек: H.264
Аудио кодек: AC3
Видео: 1280х536 (2.40:1), 1923 Kbps, 23.976 fps
Аудио: Русский (AC-3, 6ch, 384 kbps)
x264 [info]: frame I:1119 Avg QP:14.94 size: 72480
x264 [info]: frame P:26975 Avg QP:15.92 size: 21240
x264 [info]: frame B:91594 Avg QP:20.46 size: 5962
x264 [info]: consecutive B-frames: 2.4% 5.3% 8.2% 14.7% 23.0% 37.2% 4.8% 1.7% 2.7%
x264 [total]: encoded 119688 frames, 8.79 fps, 1923.22 kb/s
General
Unique ID : 251835999839588080745600984862686111704 (0xBD75D96CCFA6A5DCB9C16C0BFFCEE7D8)
Complete name : F:\ФИЛЬМЫ\Эффект.Лазаря.2015.x264.BDRip.720p.DUB.mkv
Format : Matroska
Format version : Version 4 / Version 2
File size : 1.34 GiB
Duration : 1 h 23 min
Overall bit rate : 2 309 kb/s
Movie name : Эффект Лазаря / The Lazarus Effect (2015) - #LORDKILL#
Encoded date : UTC 2017-06-01 15:35:24
Writing application : mkvmerge v9.9.0 ('Pick Up') 64bit
Writing library : libebml v1.3.4 + libmatroska v1.4.5

Video
ID : 1
Format : AVC
Format/Info : Advanced Video Codec
Format profile : High@L4.1
Format settings, CABAC : Yes
Format settings, ReFrames : 11 frames
Codec ID : V_MPEG4/ISO/AVC
Duration : 1 h 23 min
Bit rate : 1 923 kb/s
Width : 1 280 pixels
Height : 536 pixels
Display aspect ratio : 2.40:1
Frame rate mode : Constant
Frame rate : 23.976 (24000/1001) FPS
Color space : YUV
Chroma subsampling : 4:2:0
Bit depth : 8 bits
Scan type : Progressive
Bits/(Pixel*Frame) : 0.117
Stream size : 1.12 GiB (83%)
Writing library : x264 core 146 r2538 121396c
Encoding settings : cabac=1 / ref=11 / deblock=1:-2:-2 / analyse=0x3:0x113 / me=umh / subme=11 / psy=1 / psy_rd=1.00:0.10 / mixed_ref=1 / me_range=32 / chroma_me=1 / trellis=2 / 8x8dct=1 / cqm=0 / deadzone=21,11 / fast_pskip=1 / chroma_qp_offset=-3 / threads=12 / lookahead_threads=2 / sliced_threads=0 / nr=0 / decimate=1 / interlaced=0 / bluray_compat=0 / constrained_intra=0 / bframes=8 / b_pyramid=2 / b_adapt=2 / b_bias=0 / direct=1 / weightb=1 / open_gop=0 / weightp=2 / keyint=240 / keyint_min=23 / scenecut=40 / intra_refresh=0 / rc_lookahead=40 / rc=crf / mbtree=0 / crf=19.0 / qcomp=0.60 / qpmin=0 / qpmax=69 / qpstep=4 / vbv_maxrate=14000 / vbv_bufsize=14000 / crf_max=0.0 / nal_hrd=none / filler=0 / ip_ratio=1.40 / pb_ratio=1.30 / aq=1:1.00
Default : Yes
Forced : No

Audio
ID : 2
Format : AC-3
Format/Info : Audio Coding 3
Mode extension : CM (complete main)
Format settings, Endianness : Big
Codec ID : A_AC3
Duration : 1 h 23 min
Bit rate mode : Constant
Bit rate : 384 kb/s
Channel(s) : 6 channels
Channel positions : Front: L C R, Side: L R, LFE
Sampling rate : 48.0 kHz
Frame rate : 31.250 FPS (1536 spf)
Bit depth : 16 bits
Compression mode : Lossy
Stream size : 229 MiB (17%)
Title : Дубляж - iTunes
Language : Russian
Default : Yes
Forced : No





Скачать Эффект.Лазаря.The.Lazarus.Effect.(Дэвид.Гелб).[2015.ужасы.триллер.BDRip].[720p].[DUB].[iTunes].[R.G.GoldenShara].torrent без регистрации
Золото ЗОЛОТАЯ РАЗДАЧА! СКАЧАННОЕ НЕ ЗАСЧИТЫВАЕТСЯ! Золото
Дата: Зарегистрирован   [ Тип: внутренний ] Как тут cкачать?
MAGNET ссылка
MAGNET ссылка


Скачать .torrent

14 KB

Статус: проверено
Скачан: торрент - 103 раз, раздача полностью - 73 раз
Размер: 1,34 GB
Оценка:  5 (Голосов: 4)
Поблагодарили: 6
Поделиться ссылкой на эту раздачу с друзьями:
В контактеFacebookОдноклассникиTwitterLivejournalМой МирLiveinternet
 

 
Показать сообщения:    


Вы не можете начинать темы
Вы не можете отвечать на сообщения
Вы не можете редактировать свои сообщения
Вы не можете удалять свои сообщения
Вы не можете голосовать в опросах
Вы не можете прикреплять файлы к сообщениям
Вы можете скачивать файлы