Loading...
Error

Скачать Бойтесь ходячих мертвецов / Fear the Walking Dead (Сезон 03, серии 01-11 из 16) (Адам Дэвидсон, Кари Скогланд, Стефан Шварц) [2017, драма, триллер, ужасы, WEB-DL] [1080p] [MVO] (HamsterStudio) торрент без регистрации

Статистика раздачи
Размер:  18,84 GB   |    Скачан:  32 раза
Сидов:  1  [  0 KB/s  ]  

 
 
 
Автор Сообщение

leon030982

[] 

Бойтесь ходячих мертвецов / Fear the Walking Dead



Год выпуска: 2017
Страна: США
Жанр: драма, триллер, ужасы
Продолжительность: 00:45:00
Перевод: Любительский (многоголосый, закадровый) HamsterStudio
Субтитры: нет

Режиссёр: Адам Дэвидсон, Кари Скогланд, Стефан Шварц

В ролях: Клифф Кёртис, Ким Диккенс, Алисия Дебнем-Кери, Фрэнк Диллэйн, Рубен Блэйдс, Мерседес Масон, Колман Доминго, Лоренцо Джеймс Хенри, Элизабет Родригес, Тони Френч

Описание: Действия сериала происходят параллельно с событиями зомби-апокалипсиса, показанными в сериале «Ходячие мертвецы», но в совершенно другом месте — Лос-Анджелесе. Акцент будет сделан на семейные отношения, в частности, проблемы отцов и детей. История вращается вокруг Шона — разведённого школьного учителя и Нэнси руководительницы женского совета. А так же детей Нэнси: Ника, который борется с наркотической зависимостью и амбициозной дочери Эшли.



Качество: WEB-DL 1080p
Контейнер: MKV
Видео: MPEG-4 AVC, ~ 4984 Кбит/с, 1920x1080, 29.970fps
Аудио: Dolby AC3, 48000Hz, 384kbps, 2ch

Добавлена 11-я серия!
General
Unique ID : 175061553089873253531617868856002953529 (0x83B3A0F3D685BB86A70E978199614139)
Complete name : E:\Бойтесь ходячих мертвецов (Season 03) HamsterStudio 1080\Fear.the.Walking.Dead.S03E01.1080p.WEB-DL.HamsterStudio.org.mkv
Format : Matroska
Format version : Version 4 / Version 2
File size : 1.84 GiB
Duration : 48mn 4s
Overall bit rate mode : Variable
Overall bit rate : 5 479 Kbps
Encoded date : UTC 2017-06-05 17:51:57
Writing application : mkvmerge v7.8.0 ('River Man') 64bit built on Mar 27 2015 16:31:37
Writing library : libebml v1.3.1 + libmatroska v1.4.2

Video
ID : 1
Format : AVC
Format/Info : Advanced Video Codec
Format profile : Main@L4
Format settings, CABAC : Yes
Format settings, ReFrames : 3 frames
Codec ID : V_MPEG4/ISO/AVC
Duration : 48mn 4s
Bit rate mode : Variable
Bit rate : 4 986 Kbps
Maximum bit rate : 24.0 Mbps
Width : 1 920 pixels
Height : 1 080 pixels
Display aspect ratio : 16:9
Frame rate mode : Constant
Frame rate : 29.970 fps
Standard : NTSC
Color space : YUV
Chroma subsampling : 4:2:0
Bit depth : 8 bits
Scan type : Progressive
Bits/(Pixel*Frame) : 0.080
Stream size : 1.67 GiB (91%)
Default : Yes
Forced : No
Color range : Limited

Audio
ID : 2
Format : AC-3
Format/Info : Audio Coding 3
Mode extension : CM (complete main)
Format settings, Endianness : Big
Codec ID : A_AC3
Duration : 48mn 4s
Bit rate mode : Constant
Bit rate : 384 Kbps
Channel(s) : 2 channels
Channel positions : Front: L R
Sampling rate : 48.0 KHz
Compression mode : Lossy
Stream size : 132 MiB (7%)
Default : Yes
Forced : No
Когда раздача ведётся путём добавления новых серий, при каждом добавлении создётся новый торрент. Чтобы начать докачку новой серии, пользователям необходимо сделать следующее:
(1) остановить скачивание,
(2) удалить старый торрент у себя из клиента (старые серии удалять не надо),
(3) скачать новый торрент и запустить его у себя в клиенте вместо старого, при этом указать клиенту путь в старую папку, куда и должно происходить скачивание новых серий.
Ваш клиент при этом должен произвести хеширование (проверку) старой папки (если не производит сам - помогите ему сделать это), и будет докачивать только те серии, которых у вас ещё нет. Старые серии при этом не удаляются, а продолжают раздаваться!
Eсли вы уже удалили старые серии, то предотвратить повторную закачку старых серий можно, отжав галочку в соответсвующих местах при запуске нового торрента. По возможности, желательно не удалять старые серии как можно дольше, чтобы релизёр не столько продолжал раздавать старые серии, а смог сконцентрироваться на новых.




Скачать Бойтесь.ходячих.мертвецов.Fear.the.Walking.Dead.(Сезон.03.серии.01-11.из.16).(Адам.Дэвидсон.Кари.Скогланд.Стефан.Шварц).[2017.драма.триллер.ужасы.WEB-DL].[1080p].[MVO].(HamsterStudio).torrent без регистрации
Золото ЗОЛОТАЯ РАЗДАЧА! СКАЧАННОЕ НЕ ЗАСЧИТЫВАЕТСЯ! Золото
Дата: Зарегистрирован   [ Тип: внутренний ] Как тут cкачать?
MAGNET ссылка
MAGNET ссылка


Скачать .torrent

96 KB

Статус: проверено DHT
Скачан: торрент - 32 раз, раздача полностью - 2 раз
Размер: 18,84 GB
Оценка:  - (Голосов: 0)
Поблагодарили: 0
Поделиться ссылкой на эту раздачу с друзьями:
В контактеFacebookОдноклассникиTwitterLivejournalМой МирLiveinternet
 

 
Показать сообщения:    


Вы не можете начинать темы
Вы не можете отвечать на сообщения
Вы не можете редактировать свои сообщения
Вы не можете удалять свои сообщения
Вы не можете голосовать в опросах
Вы не можете прикреплять файлы к сообщениям
Вы можете скачивать файлы