Loading...
Error

Скачать Лекарство от здоровья / A Cure for Wellness (Гор Вербински) [2016, ужасы, фантастика, фэнтези, триллер, драма, детектив, BDRemux] [1080p] [Dub (Лицензия)]+[Eng]+[Sub Eng] торрент без регистрации

Статистика раздачи
Размер:  30,26 GB   |    Скачан:  305 раз
Сидов:  1  [  0 KB/s  ]  
 
 
 
Автор Сообщение

МихаНЕзатор

[] 

Информация о фильме
Название: Лекарство от здоровья
Оригинальное название: A Cure for Wellness
Год выхода: 2016
Жанр: (Гор Вербински) [2016, ужасы, фантастика, фэнтези, триллер, драма, детектив, HDRip-AVC] [Dub (Лицензия)]+[Eng]+[Sub Eng]
Режиссер: Гор Вербински

В ролях: Дэйн ДеХаан, Джейсон Айзекс, Миа Гот, Иво Нанди, Адриан Шиллер, Селия Имри, Гарри Гронер, Томас Норстрем, Ашок Манданна, Магнус Креппер

О фильме: Молодой, но перспективный брокер из динамично развивающейся компании приезжает в закрытый санаторий в Альпах, чтобы срочно забрать и вернуть в лоно родного офиса своего босса. Но тот категорически не хочет никуда уезжать, так как давно и плотно подсел на местную лечебную воду с витаминами и биодобавками. Тем более, в результате несчастного случая молодой человек и сам становится вынужденным пациентом водной здравницы. После приема внутрь нескольких стаканов с чудодейственной амброзией бедняге начинает казаться, будто бы у него вытекли глаза и выпали передние зубы, а под кожей завелись черви. Терзаемый смутными сомнениями, он начинает собственное расследование



Страна: Германия, США
Студия: Blind Wink Productions, New Regency Productions
Продолжительность: 02:26:33
Перевод: Дублированный | Лицензия

Файл
Качество: BDRemux 1080p
Видео: MPEG-4 AVC, 1920x1080, 23.9 Mbit/s, 23.976 fps
Звук:
Аудио #01: 48 kHz, DTS, 5.1, 768 Kbps | Лицензия | RUS |
Аудио #02: 48 kHz, DTS-HD MA, 7.1, 4929 Kbps | Оригинал | ENG |
Субтитры: Русские (forced, full), английские

АНОНСЫ ПОПУЛЯРНЫХ РАЗДАЧ
General
Unique ID : 253405296274573698079736803851690701218 (0xBEA415B682E7555AB85417B25E45F1A2)
Complete name : F:VideoA.Cure.for.Wellness.2016.Lic.BDREMUX.1080p.ExKinoRay.mkv
Format : Matroska
Format version : Version 4 / Version 2
File size : 30.3 GiB
Duration : 2 h 26 min
Overall bit rate mode : Variable
Overall bit rate : 29.6 Mb/s
Encoded date : UTC 2017-06-08 03:37:01
Writing application : mkvmerge v12.0.0 ('Trust / Lust') 64bit
Writing library : libebml v1.3.4 + libmatroska v1.4.5

Video
ID : 1
Format : AVC
Format/Info : Advanced Video Codec
Format profile : High@L4.1
Format settings, CABAC : Yes
Format settings, ReFrames : 2 frames
Format settings, GOP : M=1, N=10
Codec ID : V_MPEG4/ISO/AVC
Duration : 2 h 26 min
Bit rate mode : Variable
Bit rate : 23.9 Mb/s
Width : 1 920 pixels
Height : 1 080 pixels
Display aspect ratio : 16:9
Frame rate mode : Constant
Frame rate : 23.976 (24000/1001) FPS
Color space : YUV
Chroma subsampling : 4:2:0
Bit depth : 8 bits
Scan type : Progressive
Bits/(Pixel*Frame) : 0.480
Stream size : 24.4 GiB (81%)
Language : English
Default : Yes
Forced : No

Audio #1
ID : 2
Format : DTS
Format/Info : Digital Theater Systems
Mode : 16
Format settings, Endianness : Big
Codec ID : A_DTS
Duration : 2 h 26 min
Bit rate mode : Constant
Bit rate : 768 kb/s
Channel(s) : 6 channels
Channel positions : Front: L C R, Side: L R, LFE
Sampling rate : 48.0 kHz
Frame rate : 93.750 FPS (512 spf)
Bit depth : 24 bits
Compression mode : Lossy
Stream size : 805 MiB (3%)
Title : Dub [License]
Language : Russian
Default : Yes
Forced : No

Audio #2
ID : 3
Format : DTS
Format/Info : Digital Theater Systems
Format profile : MA / ES Matrix / Core
Mode : 16
Format settings, Endianness : Big
Codec ID : A_DTS
Duration : 2 h 26 min
Bit rate mode : Variable / Constant / Constant
Bit rate : 4 929 kb/s / 1 509 kb/s / 1 509 kb/s
Channel(s) : 8 channels / 7 channels / 6 channels
Channel positions : Front: L C R, Side: L R, Back: L R, LFE / Front: L C R, Side: L R, Back: C, LFE / Front: L C R, Side: L R, LFE
Sampling rate : 48.0 kHz
Frame rate : 93.750 FPS (512 spf)
Bit depth : 24 bits
Compression mode : Lossless / Lossy / Lossy
Stream size : 5.05 GiB (17%)
Title : Original
Language : English
Default : No
Forced : No

Text #1
ID : 4
Format : UTF-8
Codec ID : S_TEXT/UTF8
Codec ID/Info : UTF-8 Plain Text
Duration : 2 h 13 min
Bit rate : 0 b/s
Count of elements : 12
Stream size : 445 Bytes (0%)
Title : Forced
Language : Russian
Default : Yes
Forced : No

Text #2
ID : 5
Format : UTF-8
Codec ID : S_TEXT/UTF8
Codec ID/Info : UTF-8 Plain Text
Duration : 2 h 23 min
Bit rate : 45 b/s
Count of elements : 1202
Stream size : 48.0 KiB (0%)
Title : Full
Language : Russian
Default : No
Forced : No

Text #3
ID : 6
Format : UTF-8
Codec ID : S_TEXT/UTF8
Codec ID/Info : UTF-8 Plain Text
Duration : 2 h 17 min
Bit rate : 34 b/s
Count of elements : 1314
Stream size : 34.8 KiB (0%)
Title : Full
Language : English
Default : No
Forced : No

Text #4
ID : 7
Format : UTF-8
Codec ID : S_TEXT/UTF8
Codec ID/Info : UTF-8 Plain Text
Duration : 2 h 20 min
Bit rate : 37 b/s
Count of elements : 1475
Stream size : 38.4 KiB (0%)
Title : SDH
Language : English
Default : No
Forced : No

Menu
00:00:00.000 : en: Chapter 1
00:03:37.092 : en: Chapter 2
00:09:18.349 : en: Chapter 3
00:13:22.343 : en: Chapter 4
00:16:55.681 : en: Chapter 5
00:22:49.910 : en: Chapter 6
00:27:42.035 : en: Chapter 7
00:32:01.878 : en: Chapter 8
00:38:23.843 : en: Chapter 9
00:44:51.397 : en: Chapter 10
00:51:22.162 : en: Chapter 11
00:56:50.782 : en: Chapter 12
01:01:31.062 : en: Chapter 13
01:08:08.293 : en: Chapter 14
01:13:12.221 : en: Chapter 15
01:17:02.284 : en: Chapter 16
01:21:08.447 : en: Chapter 17
01:25:17.195 : en: Chapter 18
01:29:20.355 : en: Chapter 19
01:34:59.277 : en: Chapter 20
01:40:19.513 : en: Chapter 21
01:43:49.181 : en: Chapter 22
01:47:46.794 : en: Chapter 23
01:52:30.661 : en: Chapter 24
01:56:30.775 : en: Chapter 25
02:04:22.121 : en: Chapter 26
02:09:17.458 : en: Chapter 27
02:19:59.057 : en: Chapter 28



Скачать Лекарство.от.здоровья.A.Cure.for.Wellness.(Гор.Вербински).[2016.ужасы.фантастика.фэнтези.триллер.драма.детектив.BDRemux].[1080p].[Dub.(Лицензия)]+[Eng]+[Sub.Eng].torrent без регистрации
Золото ЗОЛОТАЯ РАЗДАЧА! СКАЧАННОЕ НЕ ЗАСЧИТЫВАЕТСЯ! Золото
Дата: Зарегистрирован   [ Тип: внутренний ] Как тут cкачать?
MAGNET ссылка
MAGNET ссылка


Скачать .torrent

152 KB

Статус: проверено DHT
Скачан: торрент - 305 раз, раздача полностью - 111 раз
Размер: 30,26 GB
Оценка:  - (Голосов: 0)
Поблагодарили: 6
Поделиться ссылкой на эту раздачу с друзьями:
В контактеFacebookОдноклассникиTwitterLivejournalМой МирLiveinternet
 

 
Показать сообщения:    


Вы не можете начинать темы
Вы не можете отвечать на сообщения
Вы не можете редактировать свои сообщения
Вы не можете удалять свои сообщения
Вы не можете голосовать в опросах
Вы не можете прикреплять файлы к сообщениям
Вы можете скачивать файлы