Loading...
Error

Скачать Родословная / Bloodline (сезон 03) (Йохан Ренк и др.) [2017, триллер, драма, WEBRip] [720р] [MVO (Baibako)]+[Eng] торрент без регистрации

Статистика раздачи
Размер:  11,27 GB   |    Скачан:  0 раз
Сидов:  2  [  0 KB/s  ]   Личеров:  5  [  0 KB/s  ]  

 
 
 
Автор Сообщение

МихаНЕзатор

[] 

Название: Родословная
Оригинальное название: Bloodline
Год выхода: 2017
Жанр: триллер, драма
Режиссер: Йохан Ренк, Дэниэл Эттиэс, Саймон Селлан Джоунс

В ролях: Кайл Чандлер, Бен Мендельсон, Линда Карделлини, Норберт Лео Батц, Джасинда Бэрретт, Джейми МакШейн, Энрике Мурсиано, Сисси Спейсек, Брэндон Ларракуэнте, Тейлор Рувьер, Клоэ Севиньи, Кэти Финнеран, Оуэн Тиг, Гленн Моршауэр, Стивен Паскуале, Сэм Шепард, Фрэнк Хойт Тейлор и др.

Описание сериала: Телевизионный сериал, американского производства, "Родословная" знакомит зрителей с обычной семьей. На первый взгляд это типичная семья из штатов, однако, вскоре, выясняется, что не все так просто... Рэйберны, кажется, живут вполне неплохо, четверо братьев и сестер каждый раз поздравляют друг друга с праздниками, и частенько справляются о здоровье друг друга. Но уже скоро все резко меняется, ведь в доме появляется пятый брат. Его возвращение кажется таким неожиданным и невероятным, что жизни всех главных героев начинают кардинально меняться. И теперь, выясняется, что у каждого из членов семьи есть страшные тайны и секреты, которые скрывались так тщательно, словно это были следы преступления или улики. Но возможно так и есть? Эта психологическая драма станет самой настоящей находкой для зрителей, которые любят запутанные сюжеты, любовные треугольники и неожиданные повороты.

Релиз группа:


Страна: США
Продолжительность: ~00:50:00
Перевод: Профессиональный (многоголосый) Baibako
Субтитры: Отсутствуют

Файл
Формат: MKV
Качество: WEBRip (720p)
Видео: MPEG-4 AVC, ~ 1900 Кбит/с, 1280x720
Аудио: Русский, Английский (AC3, 6 ch, 384 Кбит/с)

АНОНСЫ ПОПУЛЯРНЫХ РАЗДАЧ
Формат : Matroska
Версия формата : Version 4 / Version 2
Размер файла : 900 Мбайт
Продолжительность : 48 м. 40 с.
Общий поток : 2585 Кбит/сек
Дата кодирования : UTC 2017-05-27 02:06:55
Программа кодирования : mkvmerge v8.5.2 ('Crosses') 64bit
Библиотека кодирования : libebml v1.3.3 + libmatroska v1.4.4

Видео
Идентификатор : 1
Формат : AVC
Формат/Информация : Advanced Video Codec
Профиль формата : High@L3.1
Параметр CABAC формата : Да
Параметр ReFrames формата : 4 кадра
Идентификатор кодека : V_MPEG4/ISO/AVC
Продолжительность : 48 м. 40 с.
Битрейт : 1816 Кбит/сек
Ширина : 1280 пикселей
Высота : 720 пикселей
Соотношение сторон : 16:9
Режим частоты кадров : Постоянный
Частота кадров : 23,976 (23976/1000) кадра/сек
Частота кадров в оригинале : 23,976 (24000/1001) кадра/сек
Цветовое пространство : YUV
Субдискретизация насыщенности : 4:2:0
Битовая глубина : 8 бит
Тип развёртки : Прогрессивная
Бит/(Пиксели*Кадры) : 0.082
Размер потока : 632 Мбайт (70%)
Библиотека кодирования : x264 core 148 r2744 b97ae06
Настройки программы : cabac=1 / ref=3 / deblock=1:0:0 / analyse=0x3:0x113 / me=hex / subme=7 / psy=1 / psy_rd=1.00:0.00 / mixed_ref=1 / me_range=16 / chroma_me=1 / trellis=1 / 8x8dct=1 / cqm=0 / deadzone=21,11 / fast_pskip=1 / chroma_qp_offset=-2 / threads=12 / lookahead_threads=2 / sliced_threads=0 / nr=0 / decimate=1 / interlaced=0 / bluray_compat=0 / constrained_intra=0 / bframes=3 / b_pyramid=2 / b_adapt=1 / b_bias=0 / direct=1 / weightb=1 / open_gop=0 / weightp=2 / keyint=240 / keyint_min=23 / scenecut=40 / intra_refresh=0 / rc_lookahead=40 / rc=crf / mbtree=1 / crf=18.0 / qcomp=0.60 / qpmin=0 / qpmax=69 / qpstep=4 / ip_ratio=1.40 / aq=1:1.00
Default : Нет
Forced : Нет

Аудио #1
Идентификатор : 2
Формат : AC-3
Формат/Информация : Audio Coding 3
Расширение режима : CM (complete main)
Параметр Endianness формата : Big
Идентификатор кодека : A_AC3
Продолжительность : 48 м. 40 с.
Вид битрейта : Постоянный
Битрейт : 384 Кбит/сек
Каналы : 6 каналов
Расположение каналов : Front: L C R, Side: L R, LFE
Частота : 48,0 КГц
Частота кадров : 31,250 кадров/сек (1536 spf)
Битовая глубина : 16 бит
Метод сжатия : С потерями
Размер потока : 134 Мбайт (15%)
Язык : Russian
Default : Да
Forced : Нет

Аудио #2
Идентификатор : 3
Формат : AC-3
Формат/Информация : Audio Coding 3
Расширение режима : CM (complete main)
Параметр Endianness формата : Big
Идентификатор кодека : A_AC3
Продолжительность : 48 м. 40 с.
Вид битрейта : Постоянный
Битрейт : 384 Кбит/сек
Каналы : 6 каналов
Расположение каналов : Front: L C R, Side: L R, LFE
Частота : 48,0 КГц
Частота кадров : 31,250 кадров/сек (1536 spf)
Битовая глубина : 16 бит
Метод сжатия : С потерями
Размер потока : 134 Мбайт (15%)
Язык : English
Default : Нет
Forced : Нет




Скачать Родословная.Bloodline.(сезон.03).(Йохан.Ренк.и.др.).[2017.триллер.драма.WEBRip].[720р].[MVO.(Baibako)]+[Eng].torrent без регистрации
Золото ЗОЛОТАЯ РАЗДАЧА! СКАЧАННОЕ НЕ ЗАСЧИТЫВАЕТСЯ! Золото
Дата: Зарегистрирован   [ Тип: внешний ] Как тут cкачать?
MAGNET ссылка
MAGNET ссылка


Скачать .torrent

58 KB

Статус: проверено DHT
Скачан: торрент - 0 раз, раздача полностью - 0 раз
Размер: 11,27 GB
Оценка:  - (Голосов: 0)
Поблагодарили: 0
Поделиться ссылкой на эту раздачу с друзьями:
В контактеFacebookОдноклассникиTwitterLivejournalМой МирLiveinternet
 

 
Показать сообщения:    


Вы не можете начинать темы
Вы не можете отвечать на сообщения
Вы не можете редактировать свои сообщения
Вы не можете удалять свои сообщения
Вы не можете голосовать в опросах
Вы не можете прикреплять файлы к сообщениям
Вы можете скачивать файлы