Loading...
Error

Скачать Голос из камня / Voice from the Stone (Эрик Д. Хауэлл) [2017, триллер, драма, детектив, (Эрик Д. Хауэлл) [2017, триллер, драма, детектив, BDRemux] [1080p ] [Dub (лицензия iTunes)]+[VO (BadBajo)]+[Eng]+[Sub Eng] торрент без регистрации

Статистика раздачи
Размер:  17,95 GB   |    Скачан:  39 раз
Сидов:  1  [  0 KB/s  ]  
 
 
 
Автор Сообщение

МихаНЕзатор

[] 

Голос из камня / Voice from the Stone


Информация о фильме
Название: Голос из камня
Оригинальное название: Voice from the Stone
Год выхода: 2017
Жанр: Триллер, драма, детектив
Режиссер: Эрик Д. Хауэлл

В ролях: Эмилия Кларк, Мартон Чокаш, Катерина Мурино, Кейт Линдер, Ремо Джироне, Лиза Гастони, Эдвард Дринг, Джампьеро Джудика, Николь Кадедду, Антонелла Бритти

О фильме: 50-е годы прошлого века. Таинственный старинный замок в Тоскане. Сюда приезжает Верена, молодая няня, обладающая редким даром возвращать к нормальной жизни психологически травмированных детей. Она умеет найти с ними тесный контакт. Верена - последняя надежда 40-летнего вдовца Клауса, чей сын Джейкоб в течение нескольких месяцев, после смерти матери, не произнес ни слова. Оказывается, мальчик дал обет молчания до тех пор, пока дух матери не вернется. Очень скоро Верена начинает подозревать, что призрак умершей играет с ней в кошки-мышки, чтобы вселиться в ее тело. Возникшее между хозяином и девушкой влечение, перерастающее в подлинную страсть, ускоряет невероятную развязку...



Страна: США, Италия
Студия: Code 39 Films, Producer Capital Fund
Продолжительность: 01:30:19
Перевод(ы):
#1: Дублированный | iTunes
#2: Любительский одноголосый | BadBajo

Файл
Качество: BDRemux 1080p
Видео: MPEG-4 AVC, 1920x1080, 25.9 Mbit/s, 23.976 fps
Звук:
Аудио #01: 48 kHz, AC3, 5.1, 384 Kbps | iTunes | RUS |
Аудио #02: 48 kHz, AC3, 5.1, 384 Kbps | BadBajo | RUS |
Аудио #03: 48 kHz, DTS-HD MA, 5.1, 1806 Kbps | Оригинал | ENG |
Субтитры: Английские

АНОНСЫ ПОПУЛЯРНЫХ РАЗДАЧ
General
Unique ID : 220762825159588752802972293565208049853 (0xA6155FA1833D92F8BCBFD8F71CE7B8BD)
Complete name : F:VideoVoice.from.the.Stone.2017.BDREMUX.1080p.ExKinoRay.mkv
Format : Matroska
Format version : Version 4 / Version 2
File size : 18.0 GiB
Duration : 1 h 30 min
Overall bit rate mode : Variable
Overall bit rate : 28.5 Mb/s
Encoded date : UTC 2017-06-07 22:40:47
Writing application : mkvmerge v12.0.0 ('Trust / Lust') 64bit
Writing library : libebml v1.3.4 + libmatroska v1.4.5

Video
ID : 1
Format : AVC
Format/Info : Advanced Video Codec
Format profile : High@L4.1
Format settings, CABAC : Yes
Format settings, ReFrames : 4 frames
Codec ID : V_MPEG4/ISO/AVC
Duration : 1 h 30 min
Bit rate mode : Variable
Bit rate : 25.9 Mb/s
Maximum bit rate : 35.0 Mb/s
Width : 1 920 pixels
Height : 1 080 pixels
Display aspect ratio : 16:9
Frame rate mode : Constant
Frame rate : 23.976 (24000/1001) FPS
Standard : NTSC
Color space : YUV
Chroma subsampling : 4:2:0
Bit depth : 8 bits
Scan type : Progressive
Bits/(Pixel*Frame) : 0.520
Stream size : 16.3 GiB (91%)
Language : English
Default : Yes
Forced : No
Color range : Limited
Color primaries : BT.709
Transfer characteristics : BT.709
Matrix coefficients : BT.709

Audio #1
ID : 2
Format : AC-3
Format/Info : Audio Coding 3
Format settings, Endianness : Big
Codec ID : A_AC3
Duration : 1 h 30 min
Bit rate mode : Constant
Bit rate : 384 kb/s
Channel(s) : 6 channels
Channel positions : Front: L C R, Side: L R, LFE
Sampling rate : 48.0 kHz
Frame rate : 31.250 FPS (1536 spf)
Bit depth : 16 bits
Compression mode : Lossy
Stream size : 248 MiB (1%)
Title : iTunes
Language : Russian
Service kind : Complete Main
Default : Yes
Forced : No

Audio #2
ID : 3
Format : AC-3
Format/Info : Audio Coding 3
Format settings, Endianness : Big
Codec ID : A_AC3
Duration : 1 h 30 min
Bit rate mode : Constant
Bit rate : 384 kb/s
Channel(s) : 6 channels
Channel positions : Front: L C R, Side: L R, LFE
Sampling rate : 48.0 kHz
Frame rate : 31.250 FPS (1536 spf)
Bit depth : 16 bits
Compression mode : Lossy
Stream size : 248 MiB (1%)
Title : AVO [BadBajo]
Language : Russian
Service kind : Complete Main
Default : No
Forced : No

Audio #3
ID : 4
Format : DTS
Format/Info : Digital Theater Systems
Format profile : MA / Core
Mode : 16
Format settings, Endianness : Big
Codec ID : A_DTS
Duration : 1 h 30 min
Bit rate mode : Variable / Constant
Bit rate : 1 806 kb/s / 1 509 kb/s
Channel(s) : 6 channels
Channel positions : Front: L C R, Side: L R, LFE
Sampling rate : 48.0 kHz
Frame rate : 93.750 FPS (512 spf)
Bit depth : 16 bits
Compression mode : Lossless / Lossy
Stream size : 1.14 GiB (6%)
Title : Original
Language : English
Default : No
Forced : No

Text
ID : 5
Format : UTF-8
Codec ID : S_TEXT/UTF8
Codec ID/Info : UTF-8 Plain Text
Duration : 1 h 24 min
Bit rate : 22 b/s
Count of elements : 631
Stream size : 14.0 KiB (0%)
Title : Full
Language : English
Default : No
Forced : No

Menu
00:00:00.000 : en:Chapter 1
00:03:27.958 : en:Chapter 2
00:11:29.856 : en:Chapter 3
00:19:31.212 : en:Chapter 4
00:23:57.686 : en:Chapter 5
00:31:03.236 : en:Chapter 6
00:39:39.919 : en:Chapter 7
00:44:53.941 : en:Chapter 8
00:49:19.957 : en:Chapter 9
00:53:35.754 : en:Chapter 10
00:57:21.146 : en:Chapter 11
01:03:48.116 : en:Chapter 12
01:09:37.215 : en:Chapter 13
01:14:00.102 : en:Chapter 14
01:21:21.251 : en:Chapter 15
01:24:57.968 : en:Chapter 16
Релиз от: Автор релиза: Подпишись на меня:




Скачать Голос.из.камня.Voice.from.the.Stone.(Эрик.Д.Хауэлл).[2017.триллер.драма.детектив.(Эрик.Д.Хауэлл).[2017.триллер.драма.детектив.BDRemux].[1080p.].[Dub.(лицензия.iTunes)]+[VO.(BadBajo)]+[Eng]+[Sub.Eng].torrent без регистрации
Золото ЗОЛОТАЯ РАЗДАЧА! СКАЧАННОЕ НЕ ЗАСЧИТЫВАЕТСЯ! Золото
Дата: Зарегистрирован   [ Тип: внутренний ] Как тут cкачать?
MAGNET ссылка
MAGNET ссылка


Скачать .torrent

91 KB

Статус: проверено DHT
Скачан: торрент - 39 раз, раздача полностью - 45 раз
Размер: 17,95 GB
Оценка:  5 (Голосов: 1)
Поблагодарили: 3
Поделиться ссылкой на эту раздачу с друзьями:
В контактеFacebookОдноклассникиTwitterLivejournalМой МирLiveinternet
 

 
Показать сообщения:    


Вы не можете начинать темы
Вы не можете отвечать на сообщения
Вы не можете редактировать свои сообщения
Вы не можете удалять свои сообщения
Вы не можете голосовать в опросах
Вы не можете прикреплять файлы к сообщениям
Вы можете скачивать файлы