Loading...
Error

Скачать Где находится нофелет? (Геральд Бежанов) [1987, мелодрама, комедия, HDTVRip] [720р] торрент без регистрации

Статистика раздачи
Размер:  2,26 GB   |    Скачан:  50 раз
Сидов:  1  [  0 KB/s  ]  
 
 
 
Автор Сообщение

Marsianka

[] 

Информация о фильме
Название: Где находится нофелет?
Год выхода: 1987
Жанр: мелодрама, комедия
Режиссер: Геральд Бежанов
В ролях: Владимир Меньшов, Александр Панкратов-Чёрный, Валентина Теличкина, Людмила Шагалова, Николай Парфёнов, Марина Дюжева, Людмила Нильская, Наталья Коновалова, Ольга Шорина, Елена Покатилова, Елена Сафонова, Екатерина Жемчужная, Ирина Розанова, Галина Самойлова-Ледогорова, Ольга Кабо

О фильме:
Что такое нофелет? Это разъяснит вам один из героев фильма — Гена, который взялся с помощью нехитрого приема в два счета найти невесту своему двоюродному брату Паше, сорокалетнему холостяку.

В итоге Гена остается в дураках, а Паше надоедает попадать в смешные ситуации, и он сам находит выход их положения…



Страна: СССР
Студия: Мосфильм
Продолжительность: 01:17:24
Перевод: Не требуется

Файл
Качество: HDTVRip 720p
Формат: MKV
Кодек: MPEG-4 AVC Video
Видео: 1280x616 (2,078:1), 24 fps, MPEG-4 AVC ~ 4000 kbps avg, 0.211 bit/pixel
Аудио: AC3, 48 kHz, 2 ch, ~192.00 kbps avg | русский
Субтитры: Отсутствуют
Семпл
Общее
Уникальный идентификатор : 218624724351397809333727119408779111070 (0xA479971F49E210E298B2E3BEFF462A9E)
Полное имя : Gde.nahoditsya.nofelet (1987).720p.mkv
Формат : Matroska
Версия формата : Version 4 / Version 2
Размер файла : 2,26 Гбайт
Продолжительность : 1 ч. 17 м.
Общий поток : 4181 Кбит/сек
Название фильма : Где находится нофелет? (1987)
Дата кодирования : UTC 2016-12-16 12:46:32
Программа кодирования : mkvmerge v9.5.0 ('Quiet Fire') 64bit
Библиотека кодирования : libebml v1.3.4 + libmatroska v1.4.5
DURATION : 01:17:23.904000000
NUMBER_OF_FRAMES : 145122
NUMBER_OF_BYTES : 111453696
_STATISTICS_WRITING_APP : mkvmerge v9.5.0 ('Quiet Fire') 64bit
_STATISTICS_WRITING_DATE_UTC : 2016-12-16 12:46:32
_STATISTICS_TAGS : BPS DURATION NUMBER_OF_FRAMES NUMBER_OF_BYTES

Видео
Идентификатор : 1
Формат : AVC
Формат/Информация : Advanced Video Codec
Профиль формата : High@L4.1
Параметр CABAC формата : Да
Параметр ReFrames формата : 8 кадров
Идентификатор кодека : V_MPEG4/ISO/AVC
Продолжительность : 1 ч. 17 м.
Битрейт : 4000 Кбит/сек
Ширина : 1280 пикселей
Высота : 616 пикселей
Соотношение сторон : 2,078
Режим частоты кадров : Постоянный
Частота кадров : 24,000 кадра/сек
Цветовое пространство : YUV
Субдискретизация насыщенности : 4:2:0
Битовая глубина : 8 бит
Тип развёртки : Прогрессивная
Бит/(Пиксели*Кадры) : 0.211
Размер потока : 2,11 Гбайт (93%)
Заголовок : Gde.nahoditsya.nofelet (1987).720p
Библиотека кодирования : x264 core 148 r2708 86b7198
Настройки программы : cabac=1 / ref=8 / deblock=1:-2:-1 / analyse=0x3:0x133 / me=umh / subme=11 / psy=1 / psy_rd=1.10:0.55 / mixed_ref=1 / me_range=32 / chroma_me=1 / trellis=2 / 8x8dct=1 / cqm=0 / deadzone=21,11 / fast_pskip=1 / chroma_qp_offset=-4 / threads=12 / lookahead_threads=1 / sliced_threads=0 / nr=0 / decimate=0 / interlaced=0 / bluray_compat=0 / constrained_intra=0 / bframes=5 / b_pyramid=2 / b_adapt=1 / b_bias=0 / direct=1 / weightb=1 / open_gop=0 / weightp=2 / keyint=240 / keyint_min=24 / scenecut=40 / intra_refresh=0 / rc_lookahead=40 / rc=abr / mbtree=1 / bitrate=4000 / ratetol=1.0 / qcomp=0.60 / qpmin=0 / qpmax=69 / qpstep=4 / vbv_maxrate=62500 / vbv_bufsize=78125 / nal_hrd=none / filler=0 / ip_ratio=1.40 / aq=1:1.00
Язык : Russian
Default : Да
Forced : Да
Цветовой диапазон : Limited
Основные цвета : BT.709
Характеристики трансфера : BT.709
Коэффициенты матрицы : BT.709
DURATION : 01:17:23.792000000
NUMBER_OF_FRAMES : 111451
NUMBER_OF_BYTES : 2314773780
_STATISTICS_WRITING_APP : mkvmerge v9.5.0 ('Quiet Fire') 64bit
_STATISTICS_WRITING_DATE_UTC : 2016-12-16 12:46:32
_STATISTICS_TAGS : BPS DURATION NUMBER_OF_FRAMES NUMBER_OF_BYTES

Аудио
Идентификатор : 2
Формат : AC-3
Формат/Информация : Audio Coding 3
Расширение режима : CM (complete main)
Параметр Endianness формата : Big
Идентификатор кодека : A_AC3
Продолжительность : 1 ч. 17 м.
Вид битрейта : Постоянный
Битрейт : 192 Кбит/сек
Каналы : 2 канала
Расположение каналов : Front: L R
Частота : 48,0 КГц
Метод сжатия : С потерями
Размер потока : 106 Мбайт (5%)
Язык : Russian
Default : Да
Forced : Нет



Скачать Где.находится.нофелет?.(Геральд.Бежанов).[1987.мелодрама.комедия.HDTVRip].[720р].torrent без регистрации
Золото ЗОЛОТАЯ РАЗДАЧА! СКАЧАННОЕ НЕ ЗАСЧИТЫВАЕТСЯ! Золото
Дата: Зарегистрирован   [ Тип: внутренний ] Как тут cкачать?
MAGNET ссылка
MAGNET ссылка


Скачать .torrent

12 KB

Статус: проверено DHT
Скачан: торрент - 50 раз, раздача полностью - 54 раз
Размер: 2,26 GB
Оценка:  - (Голосов: 0)
Поблагодарили: 0
Поделиться ссылкой на эту раздачу с друзьями:
В контактеFacebookОдноклассникиTwitterLivejournalМой МирLiveinternet
 

 
Показать сообщения:    


Вы не можете начинать темы
Вы не можете отвечать на сообщения
Вы не можете редактировать свои сообщения
Вы не можете удалять свои сообщения
Вы не можете голосовать в опросах
Вы не можете прикреплять файлы к сообщениям
Вы можете скачивать файлы