Loading...
Error

Скачать Полесская хроника. Люди на болоте (01-08 серий из 08) (Виктор Туров) [1984, драма, экранизация, DVB] торрент без регистрации

Статистика раздачи
Размер:  9,34 GB   |    Скачан:  54 раза
Сидов:  3  [  0 KB/s  ]  
 
 
 
Автор Сообщение

Marsianka

[] 

Информация о фильме
Название: Полесская хроника. Люди на болоте (01-08 серий из 08)
Год выхода: 1984
Жанр: драма, экранизация
Режиссер: Виктор Туров
В ролях: Елена Борзова, Юрий Казючиц, Леонид Дьячков, Юрий Демич, Борис Невзоров, Марина Яковлева, Александр Мороз, Геннадий Гарбук, Ольга Лысенко, Светлана Кузьмина, Павел Кормунин, Юрий Горобец, Лилия Давидович, Дмитрий Харатьян, Афанасий Кочетков, Евгений Иловайский, Виктор Шульгин, Татьяна Мархель, Валентина Петрачкова, Людмила Писарева, Виктор Гоголев, Владимир Кулешов, Фёдор Шмаков, Всеволод Платов, Мария Захаревич, Стефания Станюта, Эдуард Горячий, Августин Милованов, Владимир Сичкарь, Нина Тер-Осипян, Александр Лабуш, Надежда Бутырцева, Анастасия Иванова, Вайва Вида Майнелите, Наталья Бражникова, Игорь Кашинцев, Александр Денисов, Иван Мацкевич, Ирина Мартемьянова, Лариса Архипова

О фильме:
Телевизионный вариант.
По одноименному роману Ивана Мележа.
Болото в фильме - понятие многозначное. Оно объединяет людей одной деревни и в то же время отгораживает их от другой жизни. Болото - образ всего отживающего, страшного в своем пагубном влиянии: здесь прячется классовый враг. Здесь живет старуха-знахарка, олицетворяющая глухое прошлое. Но есть в названии фильма и другой символ - самоотверженное трудолюбие крестьян, не собирающихся искать мест посуше и получше... Губительную власть болота можно и нужно преодолеть только своими силами. В 20-е годы в глухие места полесских болот пришла Советская власть. Однако зажиточные хозяева деревушки Курени не собирались отдавать свои земли крестьянам. Банды запугивали людей. Но крестьяне сами сделали первый шаг: всей деревней они вышли прокладывать гать через болото-дорогу к новой жизни. Сюжетная линия также описывает и жизнь молодых жителей деревни — девушки Ганны и парня Василя.

Список серий:
01 Полесская хроника. На росстанях (1984)
02 Полесская хроника. Зной (1984)
03 Полесская хроника. Листопад (1984)
04 Полесская хроника. Дыхание грозы (1984)
05 Полесская хроника. Сугробы на дорогах (1984)
06 Полесская хроника. Крещенские морозы (1984)
07 Полесская хроника. Дни надежд (1984)
08 Полесская хроника. Глубокая борозда (1984)

Доп. информация: Запись потока *.ts с наземного цифрового телеканала "Беларусь 3".



НАГРАДЫ, НОМИНАЦИИ, ФЕСТИВАЛИ:
Главный приз и диплом фильму, приз за женскую роль (Е.Борзова), приз СК Эстонской ССР ВКФ-82 в Таллине;
Приз за лучший актерский ансамбль МКФ в Карловых Варах-82;
Специальный приз МКФ в Маниле-83;
Государственная премия СССР (1984) - сценарист и режиссер В.Туров, оператор Д.Зайцев, художник Е.Игнатьев, композитор О.Янченко, актеры: Е.Борзова, Г.Гарбук, Ю.Горобец.


Благодарность: за помощь с недостающим материалом Bartimeyse и PavelDAS. Обоим большое спасибо!

Страна: СССР, Белорусская ССР
Студия: Беларусьфильм
Продолжительность: 8 х ~ 01:06:00
Перевод: не требует

Файл
Кодек: AVC (H264)
Качество: DVB
Видео: MPEG4 Video (H264) 720(785)x576 (49:36) 25fps, 2 169 kb/s
Звук: MPEG Audio 48000Hz stereo 256kbps

Семпл

General
ID : 1 (0x1)
Complete name : D:Новая земля 2Художественные фильмыЛюди на болоте (1981) Есть старый вариантПолесская хроника (1984)Полесская хроника. Люди на болоте_1-8 (1984)7 Полесская хроника. Дни надежд (1984).ts
Format : MPEG-TS
File size : 1.15 GiB
Duration : 1 h 4 min
Overall bit rate mode : Variable
Overall bit rate : 2 559 kb/s

Video
ID : 801 (0x321)
Menu ID : 1 (0x1)
Format : AVC
Format/Info : Advanced Video Codec
Format profile : Main@L3
Format settings, CABAC : Yes
Format settings, ReFrames : 4 frames
Format settings, GOP : M=4, N=24
Codec ID : 27
Duration : 1 h 4 min
Bit rate : 2 174 kb/s
Width : 720 pixels
Height : 576 pixels
Display aspect ratio : 4:3
Frame rate : 25.000 FPS
Standard : PAL
Color space : YUV
Chroma subsampling : 4:2:0
Bit depth : 8 bits
Scan type : MBAFF
Scan type, store method : Interleaved fields
Scan order : Top Field First
Bits/(Pixel*Frame) : 0.210
Stream size : 999 MiB (85%)
Color range : Limited
Color primaries : BT.601 PAL
Transfer characteristics : BT.470 System B, BT.470 System G
Matrix coefficients : BT.601

Audio
ID : 802 (0x322)
Menu ID : 1 (0x1)
Format : MPEG Audio
Format version : Version 1
Format profile : Layer 2
Codec ID : 3
Duration : 1 h 4 min
Bit rate mode : Constant
Bit rate : 256 kb/s
Channel(s) : 2 channels
Sampling rate : 48.0 kHz
Compression mode : Lossy
Stream size : 118 MiB (10%)
Language : English



Скачать Полесская.хроника.Люди.на.болоте.(01-08.серий.из.08).(Виктор.Туров).[1984.драма.экранизация.DVB].torrent без регистрации
Золото ЗОЛОТАЯ РАЗДАЧА! СКАЧАННОЕ НЕ ЗАСЧИТЫВАЕТСЯ! Золото
Дата: Зарегистрирован   [ Тип: внешний ] Как тут cкачать?
MAGNET ссылка
MAGNET ссылка


Скачать .torrent

50 KB

Статус: проверено DHT
Скачан: торрент - 54 раз, раздача полностью - 75 раз
Размер: 9,34 GB
Оценка:  - (Голосов: 0)
Поблагодарили: 0
Поделиться ссылкой на эту раздачу с друзьями:
В контактеFacebookОдноклассникиTwitterLivejournalМой МирLiveinternet
 

 
Показать сообщения:    


Вы не можете начинать темы
Вы не можете отвечать на сообщения
Вы не можете редактировать свои сообщения
Вы не можете удалять свои сообщения
Вы не можете голосовать в опросах
Вы не можете прикреплять файлы к сообщениям
Вы можете скачивать файлы