Loading...
Error

Скачать Любовь с ограничениями (Дмитрий Тюрин) [2016, Комедия, мелодрама, BDRip][1080p] [Оригинал Лицензия] [R.G. GoldenShara] торрент без регистрации

Статистика раздачи
Размер:  4,36 GB   |    Скачан:  78 раз
Сидов:  1  [  0 KB/s  ]  
 
 
 
Автор Сообщение

Magnetto83

[] 


Любовь с ограничениями


Год выпуска: 2016
Выпущено: Россия | Art Pictures Studio, ВайТ Медиа
Жанр: Комедия, мелодрама
Продолжительность: 01:42:39
Озвучивание: Оригинальное | Лицензия BD RUS |
Субтитры: Отсутствуют
Навигация по главам: Сохранены оригинальные главы как на Blu-ray

Режиссер: Дмитрий Тюрин

В ролях: Павел Прилучный, Анна Старшенбаум, Илья Глинников, Алексей Чадов, Алексей Воробьёв, Кирилл Плетнёв, Сергей Кутергин, Тимур Боканча, Ксения Иванова, Павел Шевандо

Описание: Однажды самый обычный парень Миша узнает об указе Президента России, по которому в крупных компаниях должно работать два процента людей с ограниченными возможностями. И тут в его «светлую» голову приходит идея, как воплотить свою давнюю мечту о богатой и беззаботной жизни. Не долго думая, Миша получает фиктивные медицинские документы, садится в коляску и едет на собеседование, и не куда-нибудь, а в сам «Нашгаз»! И, о чудо, им как раз не хватает одного человека до той самой квоты. Жизнь удалась! Престижная работа, большая зарплата, отличная квартира, весь мир открыт для него, только есть одно «но», одно маленькое ограничение — он должен постоянно быть в инвалидном кресле! И не просто быть в нем, он при этом еще не должен «спалиться».



Возраст: 16+

Качество: BDRip 1080p
Формат: MKV
Видео кодек: H.264
Аудио кодек: AC3
Видео: 1908x804 (2.40:1), 4437 Кбит/с, 24 fps
Аудио: Русский Dolby Digital 5.1 (448 Кбит/с)


x264 [info]: frame I:1169 Avg QP:16.10 size:139850
x264 [info]: frame P:36322 Avg QP:18.83 size: 55256
x264 [info]: frame B:110320 Avg QP:20.80 size: 19664
x264 [info]: consecutive B-frames: 3.3% 4.7% 10.4% 26.8% 21.0% 24.7% 6.9% 0.9% 1.4%
x264 [total]: encoded 147811 frames, 0.90 fps, 5637.26 kb/s



General
Complete name : D:\Video\HD\Собственные Рипы 1080р\Русские\Любовь с ограничениями 2016 Original Rus BDRip 1080p.mkv
Format : Matroska
Format version : Version 2
File size : 4.36 GiB
Duration : 1h 42mn
Overall bit rate : 6 087 Kbps
Movie name : Любовь с ограничениями 2016 Original Rus BDRip 1080p By R.G. GoldenShara
Encoded date : UTC 2017-07-04 12:25:54
Writing application : mkvmerge v5.2.0 ('I can't explain') built on Dec 18 2011 18:12:03
Writing library : libebml v1.2.3 + libmatroska v1.3.0

Video
ID : 1
Format : AVC
Format/Info : Advanced Video Codec
Format profile : High@L4.1
Format settings, CABAC : Yes
Format settings, ReFrames : 5 frames
Codec ID : V_MPEG4/ISO/AVC
Duration : 1h 42mn
Bit rate : 5 640 Kbps
Width : 1 920 pixels
Height : 804 pixels
Display aspect ratio : 2.40:1
Frame rate mode : Constant
Frame rate : 24.000 fps
Color space : YUV
Chroma subsampling : 4:2:0
Bit depth : 8 bits
Scan type : Progressive
Bits/(Pixel*Frame) : 0.152
Stream size : 3.96 GiB (91%)
Title : Любовь с ограничениями 2016 BDRip 1080p By Magnetto 83
Writing library : x264 core 146 r2538 121396c
Encoding settings : cabac=1 / ref=5 / deblock=1:-1:-1 / analyse=0x3:0x113 / me=umh / subme=10 / psy=1 / psy_rd=1.00:0.00 / mixed_ref=1 / me_range=32 / chroma_me=1 / trellis=2 / 8x8dct=1 / cqm=0 / deadzone=21,11 / fast_pskip=0 / chroma_qp_offset=-2 / threads=3 / lookahead_threads=1 / sliced_threads=0 / nr=0 / decimate=1 / interlaced=0 / bluray_compat=0 / constrained_intra=0 / bframes=8 / b_pyramid=2 / b_adapt=2 / b_bias=0 / direct=3 / weightb=1 / open_gop=0 / weightp=2 / keyint=250 / keyint_min=23 / scenecut=40 / intra_refresh=0 / rc=2pass / mbtree=0 / bitrate=5640 / ratetol=1.0 / qcomp=0.60 / qpmin=0 / qpmax=69 / qpstep=4 / cplxblur=20.0 / qblur=0.5 / ip_ratio=1.40 / pb_ratio=1.30 / aq=2:1.00
Language : Russian
Default : Yes
Forced : No

Audio
ID : 2
Format : AC-3
Format/Info : Audio Coding 3
Mode extension : CM (complete main)
Format settings, Endianness : Big
Codec ID : A_AC3
Duration : 1h 42mn
Bit rate mode : Constant
Bit rate : 448 Kbps
Channel(s) : 6 channels
Channel positions : Front: L C R, Side: L R, LFE
Sampling rate : 48.0 KHz
Compression mode : Lossy
Stream size : 329 MiB (7%)
Title : DD 5.1 @ 448 kbps - Blu-ray RUS
Language : Russian
Default : Yes
Forced : No

Menu
00:00:00.000 : en:(01)00:00:00:000
00:02:32.250 : en:(02)00:02:32:250
00:13:15.791 : en:(03)00:13:15:791
00:27:14.291 : en:(04)00:27:14:291
00:37:00.291 : en:(05)00:37:00:291
00:48:26.291 : en:(06)00:48:26:291
01:02:44.833 : en:(07)01:02:44:833
01:14:13.541 : en:(08)01:14:13:541
01:28:06.583 : en:(09)01:28:06:583







Скачать Любовь.с.ограничениями.(Дмитрий.Тюрин).[2016.Комедия.мелодрама.BDRip][1080p].[Оригинал.Лицензия].[R.G.GoldenShara].torrent без регистрации
Золото ЗОЛОТАЯ РАЗДАЧА! СКАЧАННОЕ НЕ ЗАСЧИТЫВАЕТСЯ! Золото
Дата: Зарегистрирован   [ Тип: внутренний ] Как тут cкачать?
MAGNET ссылка
MAGNET ссылка


Скачать .torrent

11 KB

Статус: проверено
Скачан: торрент - 78 раз, раздача полностью - 113 раз
Размер: 4,36 GB
Оценка:  5 (Голосов: 6)
Поблагодарили: 10
Поделиться ссылкой на эту раздачу с друзьями:
В контактеFacebookОдноклассникиTwitterLivejournalМой МирLiveinternet
 

 
Показать сообщения:    


Вы не можете начинать темы
Вы не можете отвечать на сообщения
Вы не можете редактировать свои сообщения
Вы не можете удалять свои сообщения
Вы не можете голосовать в опросах
Вы не можете прикреплять файлы к сообщениям
Вы можете скачивать файлы