Loading...
Error

Скачать Слезы солнца / Tears of the Sun (Антуан Фукуа) [2003, боевик, триллер, драма, военный, BDRip] [1080p] [Dub] [R.G. Goldenshara] торрент без регистрации

Статистика раздачи
Размер:  4,37 GB   |    Скачан:  109 раз
Сидов:  2  [  0 KB/s  ]  
 
 
 
Автор Сообщение

sobmaster

[] 

Слезы солнца
Tears of the Sun


Год выпуска: 2003

Страна: США
Выпущено: Cheyenne Enterprises, Michael Lobell Productions, Revolution Studios
Слоган: «Его учили выполнять приказ. Но он стал героем, нарушив его»
Жанр: боевик, триллер, драма, военный

Продолжительность: 02:00:55
Перевод: Профессиональный (полное дублирование)

Режиссер: Антуан Фукуа
Сценарий: Алекс Ласкер, Патрик Чирилло
Продюсер: Йен Брайс, Майк Лобелл, Арнольд Рифкин
Оператор: Мауро Фиоре
Композитор: Лиза Джеррард, Ханс Циммер
Художник: Наоми Шохан, Дэвид Лазан, Марлен Стюарт
Монтаж: Конрад Бафф IV, Кристофер Холмс

В ролях:


Брюс Уиллис (Lieutenant A.K. Waters), Моника Беллуччи (Dr. Lena Fiore Kendricks), Коул Хаузер (James «Red» Atkins), Имонн Уолкер (Ellis «Zee» Pettigrew), Джонни Месснер (Kelly Lake), Ник Чинланд (Michael «Slo» Slowenski), Чарльз Ингрэм (Demetrius «Silk» Owens), Пол Френсис (Danny «Doc» Kelley), Чад Смит (Jason «Flea» Mabry), Том Скеррит (Captain Bill Rhodes), Малик Боуэнс (Colonel Idris Sadick), Акошуа Бусиа (Patience), Ида Оньянго (Lasana), Фабрис Яхве Хабимана мл. (Bujo), Сэмми Ротиби (Arthur Azuka), Бенжамин А. Оньянго (Colonel Emanuel Okeze)

Роли дублировали: Валерий Кухарешин (Lieutenant A.K. Waters), Елена Шульман (Dr. Lena Fiore Kendricks), Александр Машанов (James «Red» Atkins), Сергей Дьячков (Ellis «Zee» Pettigrew), Станислав Концевич (Kelly Lake), Вадим Гущин (Michael «Slo» Slowenski), Максим Сергеев (Demetrius «Silk» Owens), Олег Куликович (Danny «Doc» Kelley), Иван Паршин (Jason «Flea» Mabry), Сергей Паршин (Captain Bill Rhodes), Евгений Иванов (Arthur Azuka), Андрей Тенетко (Terwase)

Бюджет: $75 000 000
Маркетинг: $35 000 000
Сборы в США: $43 734 876
Сборы в мире: $86 468 162
Сборы в России: $803 415
Зрители: США 7.2 млн , Франция 531.2 тыс. , Испания 448.6 тыс.

Мировая премьера: 3 марта 2003
Премьера (РФ): 8 мая 2003, «Каскад»
Релиз на DVD: 11 сентября 2003, «Columbia/Sony»
Релиз на Blu-Ray: 11 декабря 2008, «Columbia/Sony»
MPAA: - Лицам до 17 лет обязательно присутствие взрослого

Описание: Команда по выполнению спецопераций особой сложности послана в джунгли, в самое сердце Нигерии. Задача отважных ребят — разыскать и освободить из плена врача.
Когда они находят несчастную женщину в забытой богом деревеньке, выясняется, что характер операции надо срочно менять: врач заявляет, что покинет джунгли, только если вместе с ней спецбригада прихватит еще 70 человек беженцев.



Качество: BDRip 1080p
Контейнер: MKV
Видео: AVC, 1920x800 (2.40:1), 4728 kbps, 23,976 fps, 0.128 bpp
Аудио: русский /; AC3 /; 5.1 /; 48 kHz /; 448 kbps /; 16 bit; ||
Субтитры №1: русские
Субтитры №2: английские


АНОНСЫ ПОПУЛЯРНЫХ РАЗДАЧ
  • Это первый фильм, снимавшийся на палубе американского авианосца «Гарри С. Трумэн», класса Нимиц.
  • Изначально сценарий к этому фильму рассматривался как возможный вариант сценария к следующему фильму в серии «Крепкий орешек».
  • Во время съемок все актеры, игравшие бойцов SEAL, обязаны были обращаться друг к другу, используя боевые прозвища их персонажей.
  • Все актеры, исполнявшие роли бойцов группы спецназа, прошли двухнедельную подготовку в учебном лагере SEAL. Кроме того, Чарльз Ингрэм, исполнитель роли «Шёлка», на самом деле является ветераном сил специального назначения, в отставке. До начала своей актерской карьеры Ингрэм служил в разведгруппе специального назначения Корпуса морской пехоты США. Уйдя в отставку, Ингрэм стал каскадером в Голливуде, а затем получил и несколько ролей, в том числе — и предложение от Антуана Фукуа.
  • Сюжет фильма основан на реальной боевой операции одного из подразделений, входящих в состав JTF2 — канадских сил специального назначения. Отставной сотрудник этого спецподразделения записал историю и во время встречи в Неваде предложил её представителям производственной команды, занимавшейся проектом фильма «Приказано уничтожить» (1996), с Куртом Расселом в главной роли.
  • Для фильма была снята сцена с поцелуем Брюса Уиллиса и Моники Беллуччи, но после тестовых просмотров её удалили.
  • Персонаж, сыгранный актером Чадом Смитом, имеет боевой псевдоним «Блоха». Примечательно, что точно такое же прозвище носит легендарный бас-гитарист Red Hot Chili Peppers Майкл Питер Балзари. Имя и фамилия барабанщика этой же группы — Чад Смит.

Код:

General
Unique ID                                : 226615355398896010709288950536617758928 (0xAA7C87A659ECDE8DAC9C03A5A6F690D0)
Complete name                            : E:\Мои рипы\Слезы солнца.2003.BDRip.1080p.DUB.mkv
Format                                   : Matroska
Format version                           : Version 4 / Version 2
File size                                : 4.37 GiB
Duration                                 : 2h 0mn
Overall bit rate                         : 5 177 Kbps
Encoded date                             : UTC 2017-07-09 17:14:39
Writing application                      : mkvmerge v6.8.0 ('Theme for Great Cities') 32bit built on Mar  2 2014 21:27:07
Writing library                          : libebml v1.3.0 + libmatroska v1.4.1

Video
ID                                       : 1
Format                                   : AVC
Format/Info                              : Advanced Video Codec
Format profile                           : High@L4.1
Format settings, CABAC                   : Yes
Format settings, ReFrames                : 5 frames
Codec ID                                 : V_MPEG4/ISO/AVC
Duration                                 : 2h 0mn
Bit rate                                 : 4 728 Kbps
Width                                    : 1 920 pixels
Height                                   : 800 pixels
Display aspect ratio                     : 2.40:1
Frame rate mode                          : Constant
Frame rate                               : 23.976 fps
Color space                              : YUV
Chroma subsampling                       : 4:2:0
Bit depth                                : 8 bits
Scan type                                : Progressive
Bits/(Pixel*Frame)                       : 0.128
Stream size                              : 3.91 GiB (89%)
Writing library                          : x264 core 146 r2538 121396c
Encoding settings                        : cabac=1 / ref=5 / deblock=1:-3:-3 / analyse=0x3:0x113 / me=umh / subme=11 / psy=1 / psy_rd=1.00:0.15 / mixed_ref=1 / me_range=48 / chroma_me=1 / trellis=2 / 8x8dct=1 / cqm=0 / deadzone=21,11 / fast_pskip=0 / chroma_qp_offset=-4 / threads=6 / lookahead_threads=1 / sliced_threads=0 / nr=0 / decimate=1 / interlaced=0 / bluray_compat=0 / constrained_intra=0 / bframes=8 / b_pyramid=2 / b_adapt=2 / b_bias=0 / direct=2 / weightb=1 / open_gop=0 / weightp=2 / keyint=250 / keyint_min=23 / scenecut=40 / intra_refresh=0 / rc_lookahead=50 / rc=2pass / mbtree=0 / bitrate=4728 / ratetol=1.0 / qcomp=0.60 / qpmin=0 / qpmax=69 / qpstep=4 / cplxblur=20.0 / qblur=0.5 / vbv_maxrate=14000 / vbv_bufsize=14000 / nal_hrd=none / filler=0 / ip_ratio=1.40 / pb_ratio=1.30 / aq=2:1.00
Language                                 : English
Default                                  : Yes
Forced                                   : No
Color primaries                          : Generic film
Matrix coefficients                      : YCgCo

Audio
ID                                       : 2
Format                                   : AC-3
Format/Info                              : Audio Coding 3
Mode extension                           : CM (complete main)
Format settings, Endianness              : Big
Codec ID                                 : A_AC3
Duration                                 : 2h 0mn
Bit rate mode                            : Constant
Bit rate                                 : 448 Kbps
Channel(s)                               : 6 channels
Channel positions                        : Front: L C R, Side: L R, LFE
Sampling rate                            : 48.0 KHz
Bit depth                                : 16 bits
Compression mode                         : Lossy
Stream size                              : 387 MiB (9%)
Title                                    : Дубляж
Language                                 : Russian
Default                                  : Yes
Forced                                   : No

Text #1
ID                                       : 3
Format                                   : UTF-8
Codec ID                                 : S_TEXT/UTF8
Codec ID/Info                            : UTF-8 Plain Text
Title                                    : Русские
Language                                 : Russian
Default                                  : No
Forced                                   : No

Text #2
ID                                       : 4
Format                                   : UTF-8
Codec ID                                 : S_TEXT/UTF8
Codec ID/Info                            : UTF-8 Plain Text
Title                                    : Английские
Language                                 : English
Default                                  : No
Forced                                   : No
Раздаю ночью с 0.00 до 7.00 до 5 скачавших. На раздачи не возвращаюсь.



Скачать Слезы.солнца.Tears.of.the.Sun.(Антуан.Фукуа).[2003.боевик.триллер.драма.военный.BDRip].[1080p].[Dub].[R.G.Goldenshara].torrent без регистрации
Золото ЗОЛОТАЯ РАЗДАЧА! СКАЧАННОЕ НЕ ЗАСЧИТЫВАЕТСЯ! Золото
Дата: Зарегистрирован   [ Тип: внутренний ] Как тут cкачать?
MAGNET ссылка
MAGNET ссылка


Скачать .torrent

11 KB

Статус: проверено DHT
Скачан: торрент - 109 раз, раздача полностью - 178 раз
Размер: 4,37 GB
Оценка:  5 (Голосов: 9)
Поблагодарили: 16
Поделиться ссылкой на эту раздачу с друзьями:
В контактеFacebookОдноклассникиTwitterLivejournalМой МирLiveinternet
 

 

tttolyan

[] 

Очень благодарен!!!!!!!!!!!!!!!
 
Показать сообщения:    


Вы не можете начинать темы
Вы не можете отвечать на сообщения
Вы не можете редактировать свои сообщения
Вы не можете удалять свои сообщения
Вы не можете голосовать в опросах
Вы не можете прикреплять файлы к сообщениям
Вы можете скачивать файлы