Loading...
Error

Скачать Форсаж 6 / Furious 6 (Джастин Лин) [2013, боевик, триллер, драма, криминал, BDRip] [1080p] [Расширенная версия] [DUB Лицензия] [R.G. GoldenShara] торрент без регистрации

Статистика раздачи
Размер:  4,36 GB   |    Скачан:  402 раза
Сидов:  2  [  0 KB/s  ]  
 
 
 
Автор Сообщение

Magnetto83

[] 


Форсаж 6 / Furious 6




Год выпуска: 2013
Выпущено: США
Жанр: боевик, триллер, драма, криминал
Продолжительность: 02:11:03
Перевод: Профессиональный (полное дублирование) | Blu-ray EUR |
Субтитры: Русские (forced, full), украинские (forced, full), английские
Навигация по главам: Сохранены оригинальные главы как на Blu-ray

Режиссер: Джастин Лин

Слоган: «Все дороги принадлежат им»

В ролях: Вин Дизель, Пол Уокер, Дуэйн Джонсон, Мишель Родригес, Люк Эванс, Тайриз Гибсон, Лудакрис, Санг Кенг, Галь Гадот, Джордана Брюстер

Описание: После того как Доминик и Брайн побывали в Рио, где они ограбили и свергли империю вора в законе, их команда получила 100 миллионов, и наши герои оказались разбросаны по всему миру. Но их привычка вечно жить в бегах не даёт им покоя. Между тем, Хоббс отслеживал организацию смертельно опасных наёмников-водителей по двенадцати странам. Единственный способ остановить эту криминальную группу - это превзойти их на улицах, поэтому Хоббс просит Доминика собрать его элитную команду в Лондоне. За это он обещает полное помилование для Доминика и его друзей, чтобы они смогли наконец вернуться домой к своей семье.



Возраст: 12+ (зрителям, достигшим 12 лет.)
Рейтинг MPAA: PG-13 (детям до 13 лет просмотр нежелателен)

Качество: BDRip 1080p
Формат: MKV
Видео кодек: H.264
Аудио кодек: AC3
Видео: 1920x816 (2.40:1), 4350 Кбит/с, 23.976 fps
Аудио: Русский Dolby Digital 5.1 (384 Кбит/с)


x264 [info]: frame I:1718 Avg QP:19.21 size:155467
x264 [info]: frame P:50276 Avg QP:22.32 size: 39269
x264 [info]: frame B:136526 Avg QP:24.01 size: 14876
x264 [info]: consecutive B-frames: 5.5% 6.6% 15.9% 14.1% 12.4% 40.3% 3.9% 0.8% 0.4%
x264 [total]: encoded 188520 frames, 1.28 fps, 4346.79 kb/s



General
Complete name : I:\HD VIDEO\Собственные Рипы 1080р\Форсаж 6 2013 Dub Rus BDRip 1080p [Расширенная версия].mkv
Format : Matroska
Format version : Version 4 / Version 2
File size : 4.36 GiB
Duration : 2h 11mn
Overall bit rate : 4 764 Kbps
Movie name : Форсаж 6 2013 Dub Rus BDRip 1080p By R.G. GoldenShara
Encoded date : UTC 2017-04-28 19:23:32
Writing application : mkvmerge v7.0.0 ('Where We Going') 64bit built on Jun 9 2014 15:16:27
Writing library : libebml v1.3.0 + libmatroska v1.4.1
Attachements : Обложка.jpg / Постер 3.jpg / Постер 2.jpg / Постер 1.jpg
DURATION : 02:06:13.857000000
NUMBER_OF_FRAMES : 1862
NUMBER_OF_BYTES : 107783
_STATISTICS_WRITING_APP : mkvmerge v7.0.0 ('Where We Going') 64bit built on Jun 9 2014 15:16:27
_STATISTICS_WRITING_DATE_UTC : 2017-04-28 19:23:32
_STATISTICS_TAGS : BPS DURATION NUMBER_OF_FRAMES NUMBER_OF_BYTES

Video
ID : 1
Format : AVC
Format/Info : Advanced Video Codec
Format profile : High@L4.1
Format settings, CABAC : Yes
Format settings, ReFrames : 5 frames
Codec ID : V_MPEG4/ISO/AVC
Duration : 2h 11mn
Bit rate : 4 350 Kbps
Width : 1 920 pixels
Height : 816 pixels
Display aspect ratio : 2.35:1
Frame rate mode : Constant
Frame rate : 23.976 fps
Color space : YUV
Chroma subsampling : 4:2:0
Bit depth : 8 bits
Scan type : Progressive
Bits/(Pixel*Frame) : 0.116
Stream size : 3.92 GiB (90%)
Title : Форсаж 6 2013 BDRip 1080p By Magnetto 83
Writing library : x264 core 146 r2538 121396c
Encoding settings : cabac=1 / ref=5 / deblock=1:-1:-1 / analyse=0x3:0x113 / me=umh / subme=10 / psy=1 / psy_rd=1.00:0.00 / mixed_ref=1 / me_range=32 / chroma_me=1 / trellis=2 / 8x8dct=1 / cqm=0 / deadzone=21,11 / fast_pskip=0 / chroma_qp_offset=-2 / threads=3 / lookahead_threads=1 / sliced_threads=0 / nr=0 / decimate=1 / interlaced=0 / bluray_compat=0 / constrained_intra=0 / bframes=8 / b_pyramid=2 / b_adapt=2 / b_bias=0 / direct=3 / weightb=1 / open_gop=0 / weightp=2 / keyint=250 / keyint_min=23 / scenecut=40 / intra_refresh=0 / rc_lookahead=60 / rc=2pass / mbtree=1 / bitrate=4350 / ratetol=1.0 / qcomp=0.60 / qpmin=0 / qpmax=69 / qpstep=4 / cplxblur=20.0 / qblur=0.5 / vbv_maxrate=14000 / vbv_bufsize=14000 / nal_hrd=none / filler=0 / ip_ratio=1.40 / aq=1:1.00
Language : English
Default : Yes
Forced : No

Audio
ID : 2
Format : AC-3
Format/Info : Audio Coding 3
Mode extension : CM (complete main)
Format settings, Endianness : Big
Codec ID : A_AC3
Duration : 2h 11mn
Bit rate mode : Constant
Bit rate : 384 Kbps
Channel(s) : 6 channels
Channel positions : Front: L C R, Side: L R, LFE
Sampling rate : 48.0 KHz
Compression mode : Lossy
Stream size : 360 MiB (8%)
Title : DD 5.1 @ 384 kbps - Dub | Blu-Ray EUR |
Language : Russian
Default : Yes
Forced : Yes

Text #1
ID : 3
Format : UTF-8
Codec ID : S_TEXT/UTF8
Codec ID/Info : UTF-8 Plain Text
Title : Forced
Language : Russian
Default : Yes
Forced : Yes

Text #2
ID : 4
Format : UTF-8
Codec ID : S_TEXT/UTF8
Codec ID/Info : UTF-8 Plain Text
Title : Full
Language : Russian
Default : No
Forced : No

Text #3
ID : 5
Format : UTF-8
Codec ID : S_TEXT/UTF8
Codec ID/Info : UTF-8 Plain Text
Title : Forced
Language : Ukrainian
Default : No
Forced : No

Text #4
ID : 6
Format : UTF-8
Codec ID : S_TEXT/UTF8
Codec ID/Info : UTF-8 Plain Text
Title : Full
Language : Ukrainian
Default : No
Forced : No

Text #5
ID : 7
Format : UTF-8
Codec ID : S_TEXT/UTF8
Codec ID/Info : UTF-8 Plain Text
Title : Full
Language : English
Default : No
Forced : No

Text #6
ID : 8
Format : UTF-8
Codec ID : S_TEXT/UTF8
Codec ID/Info : UTF-8 Plain Text
Title : SDH
Language : English
Default : No
Forced : No

Menu
00:00:00.000 : en:(01)00:00:00:000
00:04:21.010 : en:(02)00:04:21:010
00:10:19.118 : en:(03)00:10:19:118
00:15:35.267 : en:(04)00:15:35:267
00:19:18.574 : en:(05)00:19:18:574
00:24:32.721 : en:(06)00:24:32:721
00:30:23.404 : en:(07)00:30:23:404
00:36:28.477 : en:(08)00:36:28:477
00:44:01.305 : en:(09)00:44:01:305
00:50:50.255 : en:(10)00:50:50:255
00:56:54.327 : en:(11)00:56:54:327
01:04:54.056 : en:(12)01:04:54:056
01:10:14.293 : en:(13)01:10:14:293
01:19:13.456 : en:(14)01:19:13:456
01:25:41.177 : en:(15)01:25:41:177
01:34:53.771 : en:(16)01:34:53:771
01:41:48.560 : en:(17)01:41:48:560
01:48:31.838 : en:(18)01:48:31:838
01:57:48.811 : en:(19)01:57:48:811
02:03:04.418 : en:(20)02:03:04:418
02:11:02.646 : en:(21)02:11:02:646







Скачать Форсаж.6.Furious.6.(Джастин.Лин).[2013.боевик.триллер.драма.криминал.BDRip].[1080p].[Расширенная.версия].[DUB.Лицензия].[R.G.GoldenShara].torrent без регистрации
Золото ЗОЛОТАЯ РАЗДАЧА! СКАЧАННОЕ НЕ ЗАСЧИТЫВАЕТСЯ! Золото
Дата: Зарегистрирован   [ Тип: внутренний ] Как тут cкачать?
MAGNET ссылка
MAGNET ссылка


Скачать .torrent

11 KB

Статус: проверено
Скачан: торрент - 402 раз, раздача полностью - 180 раз
Размер: 4,36 GB
Оценка:  5 (Голосов: 10)
Поблагодарили: 23
Поделиться ссылкой на эту раздачу с друзьями:
В контактеFacebookОдноклассникиTwitterLivejournalМой МирLiveinternet
 

 

Magnetto83

[] 

Делал для себя, так как у меня, есть вся коллекция в 1080p на 4.36. И по многочисленным просьбам выкладываю этот рип сюда. Это единственная часть которой нет в сети в таком размере с разрешением 1080р. Но на 100% согласен с LORDKILL что для таких фильмов лучше делать рипы в 720р. bs Всем Приятного Просмотра!!!! ay
 

LORDKILL

[] 

А логи сохранились?
 

Magnetto83

[] 

Нет, к сожалению! Вычищал временную папку и случайно удалил! Но по пямяти помню последняя цыфра была 24 с хвостиком! bn
 

Magnetto83

[] 

Вот Так!
 

LORDKILL

[] 

Magnetto83 писал(а):

Нет, к сожалению! Вычищал временную папку и случайно удалил! Но по пямяти помню последняя цыфра была 24 с хвостиком! bn
Нормально, старайся сохранять!
 

Magnetto83

[] 

bs Понял, Спасибо! ac Хотя если честно, мне 6-я часть по исходнику самая худшая!!! Много зерна в темноте и во многих местах замыленая картинка!!! bn
 

SanCinema

[] 

Magnetto83, если рипуешь прогой XviD4PSP5, смело ставь 4495 Мб...
Если Windows 64 разрядный то в глобальных настройках самой проги XviD4PSP5 надо выставить поддержку 64 битной формы кодирования, тогда смело можно выставлять размер рипа 4505 Мб, тогда будет точный размер 4.36/37 Гб...
При 64 битной форме кодировании, если выставить в настройках и выставить в самой проге XviD4PSP5 эту поддержку, рипует в раза быстрее, а то и более, экономия времени 4-5 часов... эти настройки выставлять в проге XviD4PSP5 только если сама Винда 64 битная, проверено! Надеюсь помог... ab

За труды, релиз спасибо! bs ay
 

Magnetto83

[] 

ay Спасибо за спасибо SanCinema!!! az И за добрый совет спасибо!!! bs
 

Magnetto83

[] 

Следующий рип:

 

DimoNsteR

[] 

SanCinema писал(а):

\смело ставь 4505 Мб, тогда будет точный размер 4.36/37 Гб... \
тогда будет 4,39
 

SanCinema

[] 

DimoNsteR писал(а):

тогда будет 4,39
DimoNsteR читай внимательнее что к чему и что на что...
 

Magnetto83

[] 

ab Возврат на раздачу! Проведены косметические обновления, которые не коснулись видео и звука! Вшиты чаптеры и очищены субтитры! Приятного просмотра! ad
 

DEN-RDN

[] 

раздайте пожалуйста, не хватает именно этой части для коллекции
 
Показать сообщения:    


Вы не можете начинать темы
Вы не можете отвечать на сообщения
Вы не можете редактировать свои сообщения
Вы не можете удалять свои сообщения
Вы не можете голосовать в опросах
Вы не можете прикреплять файлы к сообщениям
Вы можете скачивать файлы