Loading...
Error

Скачать Возьми меня штурмом / Raid dingue (Дани Бун) [2016, Комедия, Боевик, BDRip][1080p] [DUB iTunes] [R.G. GoldenShara] торрент без регистрации

Статистика раздачи
Размер:  4,33 GB   |    Скачан:  133 раза

Полного источника не было: 14 часов

 
 
 
Автор Сообщение

Magnetto83

[] 


Возьми меня штурмом / Raid dingue


Год выпуска: 2016
Выпущено: Франция, Бельгия Студия: Pathé, Les Productions du Ch'timi, TF1 Films Production
Жанр: Комедия, Боевик
Продолжительность: 01:46:24
Перевод: Профессиональный (полное дублирование) Dub | iTunes |
Субтитры: Английские (Full), Французские (Full) | PGS |
Навигация по главам: Сохранены оригинальные главы как на Blu-ray

Режиссер: Дани Бун

В ролях: Алис Поль, Дани Бун, Мишель Блан, Иван Атталь, Сабин Азема, Патрик Милле, Франсуа Леванталь, Энн Маривин, Флоран Пейр, Ален Дуте

Описание: Принято считать, что в спецназе работают самые сильные, ловкие и хладнокровные люди. Эта работа не для слабаков и необходимо иметь железные нервы и выдержку. Однако, бывают исключения из правил даже в такой, казалось бы, сугубо мужской работе. В фильме показан элитный батальйон спецназа, в который пришла работать молодая и очаровательная девушка. Она совершенно не вписывается в стандарт спецназа, любит шутить и пить кофе. Естественно, появление такой красотки в батальоне приводит всех мужчин в изумление. Все стали проявлять знаки внимания и стараться всячески ухаживать за хрупкой девушкой. Нашлись и те, кто отнесся скептически к появлению девушки в батальоне. Начальник батальона считает, что от женщин одни неприятности и что им нечего делать в таком месте как армия и спецназ. Мужчина намерен во что бы то ни стало избавиться от девушки в своем батальоне. Между мужчиной и девушкой начинается настоящая война, в которой каждый будет отстаивать свою точку зрения. Девушка решительно настроена доказать мужчине, что она имеет право на ровне с мужчинами быть в батальоне. Она хочет продемонстрировать мужчине все свои навыки. Герои даже представить не могут, чем в итоге закончится их противостояние



Возраст: 12+ (Зрителям, достигшим 12 лет)

Качество: BDRip 1080p
Формат: MKV
Видео кодек: H.264
Аудио кодек: AC3
Видео: 1920x800 (2.40:1), 5798 Кбит/с, 23.976 fps
Аудио: Русский Dolby Digital 5.1 (384 Кбит/с)


x264 [info]: frame I:1511 Avg QP:15.99 size:167184
x264 [info]: frame P:37246 Avg QP:19.14 size: 53611
x264 [info]: frame B:114297 Avg QP:21.17 size: 18156
x264 [info]: consecutive B-frames: 3.2% 3.8% 10.5% 29.8% 18.8% 28.2% 3.8% 1.2% 0.6%
x264 [total]: encoded 153054 frames, 1.38 fps, 5419.63 kb/s



General
Complete name : I:\HD VIDEO\Мои Рипы 1080р По Годам\Кино Хиты 2016\Возьми меня штурмом 2016 Dub Rus iTunes BDRip 1080p.mkv
Format : Matroska
Format version : Version 4 / Version 2
File size : 4.33 GiB
Duration : 1h 46mn
Overall bit rate : 5 826 Kbps
Movie name : Возьми меня штурмом 2016 Dub Rus BDRip 1080p By R.G. GoldenShara
Encoded date : UTC 2017-07-09 11:32:26
Writing application : mkvmerge v7.8.0 ('River Man') 32bit built on Mar 27 2015 16:18:02
Writing library : libebml v1.3.1 + libmatroska v1.4.2
DURATION : 01:44:39.941000000
NUMBER_OF_FRAMES : 3086
NUMBER_OF_BYTES : 7126204
_STATISTICS_WRITING_APP : mkvmerge v7.8.0 ('River Man') 32bit built on Mar 27 2015 16:18:02
_STATISTICS_WRITING_DATE_UTC : 2017-07-09 11:32:26
_STATISTICS_TAGS : BPS DURATION NUMBER_OF_FRAMES NUMBER_OF_BYTES

Video
ID : 1
Format : AVC
Format/Info : Advanced Video Codec
Format profile : High@L4.1
Format settings, CABAC : Yes
Format settings, ReFrames : 5 frames
Codec ID : V_MPEG4/ISO/AVC
Duration : 1h 46mn
Bit rate : 5 426 Kbps
Width : 1 920 pixels
Height : 800 pixels
Display aspect ratio : 2.40:1
Frame rate mode : Constant
Frame rate : 23.976 fps
Color space : YUV
Chroma subsampling : 4:2:0
Bit depth : 8 bits
Scan type : Progressive
Bits/(Pixel*Frame) : 0.147
Stream size : 3.96 GiB (91%)
Title : Возьми меня штурмом 2016 BDRip 1080p By Magnetto 83
Writing library : x264 core 146 r2538 121396c
Encoding settings : cabac=1 / ref=5 / deblock=1:-3:-3 / analyse=0x3:0x113 / me=umh / subme=11 / psy=1 / psy_rd=1.00:0.00 / mixed_ref=1 / me_range=32 / chroma_me=1 / trellis=2 / 8x8dct=1 / cqm=0 / deadzone=21,11 / fast_pskip=0 / chroma_qp_offset=-2 / threads=3 / lookahead_threads=1 / sliced_threads=0 / nr=0 / decimate=1 / interlaced=0 / bluray_compat=0 / constrained_intra=0 / bframes=8 / b_pyramid=2 / b_adapt=2 / b_bias=0 / direct=3 / weightb=1 / open_gop=0 / weightp=2 / keyint=250 / keyint_min=23 / scenecut=40 / intra_refresh=0 / rc=2pass / mbtree=0 / bitrate=5426 / ratetol=1.0 / qcomp=0.60 / qpmin=0 / qpmax=69 / qpstep=4 / cplxblur=20.0 / qblur=0.5 / ip_ratio=1.40 / pb_ratio=1.30 / aq=2:1.00
Language : French
Default : Yes
Forced : No

Audio
ID : 2
Format : AC-3
Format/Info : Audio Coding 3
Mode extension : CM (complete main)
Format settings, Endianness : Big
Codec ID : A_AC3
Duration : 1h 46mn
Bit rate mode : Constant
Bit rate : 384 Kbps
Channel(s) : 6 channels
Channel positions : Front: L C R, Side: L R, LFE
Sampling rate : 48.0 KHz
Compression mode : Lossy
Stream size : 292 MiB (7%)
Title : DD 5.1 @ 384 Kbps - Dub | iTunes |
Language : Russian
Default : Yes
Forced : No

Text #1
ID : 3
Format : PGS
Muxing mode : zlib
Codec ID : S_HDMV/PGS
Codec ID/Info : Picture based subtitle format used on BDs/HD-DVDs
Language : Russian
Default : No
Forced : No

Text #2
ID : 4
Format : PGS
Muxing mode : zlib
Codec ID : S_HDMV/PGS
Codec ID/Info : Picture based subtitle format used on BDs/HD-DVDs
Language : French
Default : No
Forced : No

Text #3
ID : 5
Format : PGS
Muxing mode : zlib
Codec ID : S_HDMV/PGS
Codec ID/Info : Picture based subtitle format used on BDs/HD-DVDs
Language : English
Default : No
Forced : No

Menu
00:00:00.000 : en:Chapter 1
00:07:39.792 : en:Chapter 2
00:17:45.647 : en:Chapter 3
00:27:53.838 : en:Chapter 4
00:37:35.044 : en:Chapter 5
00:46:48.931 : en:Chapter 6
00:57:19.936 : en:Chapter 7
01:06:35.992 : en:Chapter 8
01:16:37.593 : en:Chapter 9
01:24:14.716 : en:Chapter 10
01:33:08.791 : en:Chapter 11
01:42:39.278 : en:Chapter 12







Скачать Возьми.меня.штурмом.Raid.dingue.(Дани.Бун).[2016.Комедия.Боевик.BDRip][1080p].[DUB.iTunes].[R.G.GoldenShara].torrent без регистрации
Золото ЗОЛОТАЯ РАЗДАЧА! СКАЧАННОЕ НЕ ЗАСЧИТЫВАЕТСЯ! Золото
Дата: Зарегистрирован   [ Тип: внутренний ] Как тут cкачать?
MAGNET ссылка
MAGNET ссылка


Скачать .torrent

11 KB

Статус: Τ временная раздача
Скачан: торрент - 133 раз, раздача полностью - 235 раз
Размер: 4,33 GB
Оценка:  5 (Голосов: 5)
Поблагодарили: 11
Поделиться ссылкой на эту раздачу с друзьями:
В контактеFacebookОдноклассникиTwitterLivejournalМой МирLiveinternet
 

 

Magnetto83

[] 

bv Уважаемые Друзья! ab Наконец-то пришло время отпусков и отдыха! af В общем я на неделю сваливаю на море!!! bp О заказах и о новых рипах я не забыл, и уже в следующее Воскресенье будет новый рип фильма "Шальная Карта 2015", а далее "Затерянный город Z 2017" и "Обещание 2016". ay Ну а там посмотрим! ag Всем хорошего настроения и позитива!!! az br
 

DEN-RDN

[] 

Приятного отдыха az
 

wuwechka

[] 

Поддерживаю вышесказанное. "Magnetto83 на дальних берегах 2017". ah az
 

Magnetto83

[] 

az Спасибо Друзья! Всё будет wuwechka!!! ad
 

asd-anane

[] 

Хорошо позагорать и главное сильно не накидываться, чтоб с утра голова не бо-бо)))))
 

sobmaster

[] 

Magnetto83, желаю приятного отдыха по полной программе, главное, не заплывай за буйки!!! al ag
 

LORDKILL

[] 

Magnetto83 НЕ СЛУШАЙ НИКОГО! Отдыхай по полной, главное целым вернись!
 

Голден Шура

[] 

Magnetto83 послушай меня одного! Накидайся там по полной, заплывай за буйки и прочее, главное не забудь всем привезти магнитики на холодильник!)
 

Kitaec1

[] 

Magnetto83
Отлично отдохнуть и ждем отличных релизов. ab
 

Magnetto83

[] 

Голден Шура писал(а):

Magnetto83 послушай меня одного! Накидайся там по полной, заплывай за буйки и прочее, главное не забудь всем привезти магнитики на холодильник!)
ay ag Друзья, спасибо! ab План выполнен и перевыполнен!!! az Магнитики привёз!!! bf Вернулся целым! bm be
 

Kitaec1

[] 

Magnetto83 писал(а):

Голден Шура писал(а):

Magnetto83 послушай меня одного! Накидайся там по полной, заплывай за буйки и прочее, главное не забудь всем привезти магнитики на холодильник!)
ay ag Друзья, спасибо! ab План выполнен и перевыполнен!!! az Магнитики привёз!!! bf Вернулся целым! bm be
С возвращением.
 

Magnetto83

[] 

ab Спасибо Kitaec1!!! az
 

Kitaec1

[] 

Magnetto83
Русских субтитров нет. ab
 

Magnetto83

[] 

ac Да, Вы правы! ad Они как бы есть, но не отображаются! ai В общем при замене на лицензию, всё переделаю! ab
 
Показать сообщения:    


Вы не можете начинать темы
Вы не можете отвечать на сообщения
Вы не можете редактировать свои сообщения
Вы не можете удалять свои сообщения
Вы не можете голосовать в опросах
Вы не можете прикреплять файлы к сообщениям
Вы можете скачивать файлы