Loading...
Error

Скачать Сталкер (Андрей Тарковский) [1979, фантастика, драма, экранизация, антиутопия, BDRip] [1080p] [Sub Eng Rus] торрент без регистрации

Статистика раздачи
Размер:  15,53 GB   |    Скачан:  34 раза
Сидов:  1  [  0 KB/s  ]  
 
 
 
Автор Сообщение

Marsianka

[] 

Информация о фильме
Оригинальное название: Сталкер
Год выпуска: 1979
Жанр: фантастика, драма, экранизация, антиутопия
Выпущено: СССР, Мосфильм
Режиссер: Андрей Тарковский
В ролях: Александр Кайдановский, Анатолий Солоницын, Алиса Фрейндлих, Николай Гринько, Наталья Абрамова, Файме Юрно, Раймо Ренди, Владимир Заманский

О фильме: По мотивам повести братьев Стругацких "Пикник на обочине". Группа людей, ведомая Сталкером, направляется в Зону - загадочную и опасную территорию, оставшуюся после посещения инопланетян. В глубине Зоны, за порогом некой комнаты, исполняются самые заветные желания. Только сам Сталкер, по странному условию Зоны, не вправе переступить манящий спасительный порог... Пройдут ли смельчаки этот путь? Да и существует ли волшебная комната? Или, быть может, достичь ее - значит подняться над самим собой, обрести безграничную внутреннюю свободу?...



Продолжительность: 02:41:54
Язык: Русский
Субтитры: Русские, английские

Файл
Качество: BDRip (1080p)
Видео: MPEG-4 AVC, 13.1 Мбит/с, 1480x1080
Аудио #1 Русский (1 ch, 128 Кбит/с) - BD
Аудио #2 Русский (6 ch, 448 Кбит/с) - DVD
Сэмпл
Формат : Matroska
Версия формата : Version 2
Размер файла : 15,5 Гбайт
Продолжительность : 2 ч. 41 м.
Общий поток : 13,7 Мбит/сек
Название фильма : ~V ad~
Дата кодирования : UTC 2017-07-19 18:50:13
Программа кодирования : mkvmerge v6.5.0 ('Isn't she lovely') built on Oct 20 2013 12:50:05
Библиотека кодирования : libebml v1.3.0 + libmatroska v1.4.1
Обложка : Yes
Attachments : cover1.jpg

Видео
Идентификатор : 1
Формат : AVC
Формат/Информация : Advanced Video Codec
Профиль формата : High@L4.1
Параметр CABAC формата : Да
Параметр ReFrames формата : 4 кадра
Идентификатор кодека : V_MPEG4/ISO/AVC
Продолжительность : 2 ч. 41 м.
Битрейт : 13,1 Мбит/сек
Ширина : 1480 пикселей
Высота : 1080 пикселей
Соотношение сторон : 1,370
Режим частоты кадров : Постоянный
Частота кадров : 23,976 (24000/1001) кадра/сек
Цветовое пространство : YUV
Субдискретизация насыщенности : 4:2:0
Битовая глубина : 8 бит
Тип развёртки : Прогрессивная
Бит/(Пиксели*Кадры) : 0.343
Размер потока : 14,6 Гбайт (94%)
Заголовок : ~V~
Библиотека кодирования : x264 core 150 r2833 df79067
Настройки программы : cabac=1 / ref=4 / deblock=1:-3:-3 / analyse=0x3:0x133 / me=umh / subme=11 / psy=1 / psy_rd=1.00:0.10 / mixed_ref=1 / me_range=32 / chroma_me=1 / trellis=2 / 8x8dct=1 / cqm=0 / deadzone=21,11 / fast_pskip=0 / chroma_qp_offset=-3 / threads=12 / lookahead_threads=1 / sliced_threads=0 / nr=0 / decimate=0 / interlaced=0 / bluray_compat=0 / constrained_intra=0 / bframes=12 / b_pyramid=2 / b_adapt=2 / b_bias=0 / direct=3 / weightb=1 / open_gop=0 / weightp=2 / keyint=240 / keyint_min=23 / scenecut=40 / intra_refresh=0 / rc=2pass / mbtree=0 / bitrate=13149 / ratetol=1.0 / qcomp=0.60 / qpmin=0 / qpmax=69 / qpstep=4 / cplxblur=20.0 / qblur=0.5 / ip_ratio=1.36 / pb_ratio=1.24 / aq=3:1.00
Язык : Английский
Default : Да
Forced : Нет

Аудио #1
Идентификатор : 2
Формат : AC-3
Формат/Информация : Audio Coding 3
Параметр Endianness формата : Big
Идентификатор кодека : A_AC3
Продолжительность : 2 ч. 41 м.
Вид битрейта : Постоянный
Битрейт : 128 Кбит/сек
Каналы : 1 канал
Расположение каналов : Front: C
Частота : 48,0 КГц
Частота кадров : 31,250 кадров/сек (1536 spf)
Битовая глубина : 16 бит
Метод сжатия : С потерями
Размер потока : 148 Мбайт (1%)
Заголовок : BD[REMASTERED]
Язык : Русский
Default : Да
Forced : Нет

Аудио #2
Идентификатор : 3
Формат : AC-3
Формат/Информация : Audio Coding 3
Параметр Endianness формата : Big
Идентификатор кодека : A_AC3
Продолжительность : 2 ч. 41 м.
Вид битрейта : Постоянный
Битрейт : 448 Кбит/сек
Каналы : 6 каналов
Расположение каналов : Front: L C R, Side: L R, LFE
Частота : 48,0 КГц
Частота кадров : 31,250 кадров/сек (1536 spf)
Битовая глубина : 16 бит
Метод сжатия : С потерями
Размер потока : 519 Мбайт (3%)
Заголовок : DVD
Язык : Русский
Default : Нет
Forced : Нет

Текст #1
Идентификатор : 4
Формат : UTF-8
Идентификатор кодека : S_TEXT/UTF8
Идентификатор кодека/Информация : UTF-8 Plain Text
Язык : Русский
Default : Нет
Forced : Нет

Текст #2
Идентификатор : 5
Формат : UTF-8
Идентификатор кодека : S_TEXT/UTF8
Идентификатор кодека/Информация : UTF-8 Plain Text
Язык : Английский
Default : Нет
Forced : Нет

Меню
00:00:00.000 : en:Chapter 1
00:03:45.225 : en:Chapter 2
00:13:17.004 : en:Chapter 3
00:15:57.957 : en:Chapter 4
00:21:53.895 : en:Chapter 5
00:29:22.719 : en:Chapter 6
00:33:10.154 : en:Chapter 7
00:38:50.202 : en:Chapter 8
00:43:53.631 : en:Chapter 9
00:47:34.518 : en:Chapter 10
00:52:45.787 : en:Chapter 11
01:05:44.231 : en:Chapter 12
01:14:07.276 : en:Chapter 13
01:23:53.403 : en:Chapter 14
01:31:58.846 : en:Chapter 15
01:44:50.325 : en:Chapter 16
01:51:41.653 : en:Chapter 17
02:02:21.876 : en:Chapter 18
02:24:31.079 : en:Chapter 19
02:37:31.024 : en:Chapter 20
02:41:53.495 : en:Chapter 21
x264 [info]: frame I:1019 Avg QP:18.66 size:219557
x264 [info]: frame P:36246 Avg QP:20.88 size:112763
x264 [info]: frame B:195632 Avg QP:22.54 size: 59585
x264 [info]: consecutive B-frames: 0.5% 0.1% 0.4% 3.1% 9.6% 47.6% 14.6% 8.1% 6.9% 5.7% 2.1% 0.9% 0.5%
Релиз от:



Скачать Сталкер.(Андрей.Тарковский).[1979.фантастика.драма.экранизация.антиутопия.BDRip].[1080p].[Sub.Eng.Rus].torrent без регистрации
Золото ЗОЛОТАЯ РАЗДАЧА! СКАЧАННОЕ НЕ ЗАСЧИТЫВАЕТСЯ! Золото
Дата: Зарегистрирован   [ Тип: внутренний ] Как тут cкачать?
MAGNET ссылка
MAGNET ссылка


Скачать .torrent

40 KB

Статус: проверено DHT
Скачан: торрент - 34 раз, раздача полностью - 19 раз
Размер: 15,53 GB
Оценка:  - (Голосов: 0)
Поблагодарили: 1
Поделиться ссылкой на эту раздачу с друзьями:
В контактеFacebookОдноклассникиTwitterLivejournalМой МирLiveinternet
 

 
Показать сообщения:    


Вы не можете начинать темы
Вы не можете отвечать на сообщения
Вы не можете редактировать свои сообщения
Вы не можете удалять свои сообщения
Вы не можете голосовать в опросах
Вы не можете прикреплять файлы к сообщениям
Вы можете скачивать файлы