Loading...
Error

Скачать Полный расколбас / Sausage Party (Грег Тирнан, Конрад Вернон) [2016 г., мультфильм, фэнтези, комедия, приключения, BDRip-AVC] [DUB] торрент без регистрации

Статистика раздачи
Размер:  746 MB   |    Скачан:  106 раз
Сидов:  1  [  0 KB/s  ]  
 
 
 
Автор Сообщение

durik

[] 

Полный расколбас / Sausage Party

Информация о фильме
Название: Полный расколбас
Оригинальное название: Sausage Party
Год выхода: 2016
Жанр: мультфильм, фэнтези, комедия, приключения
Режиссер: Грег Тирнан, Конрад Вернон
В ролях: Сет Роген, Кристен Уиг, Джона Хилл, Билл Хейдер, Майкл Сера, Джеймс Франко, Дэнни МакБрайд, Крэйг Робинсон, Пол Радд, Ник Кролл

О фильме:
Первая анимационная комедия для взрослых о невероятных приключениях еды из супермаркета. Съедобным друзьям предстоит получить ответ на главный вопрос: есть ли жизнь за стенами супермаркета, и что же происходит с продуктами после того, как они попадают к людям домой?



Страна: США, Камбоджа
Студия: Annapurna Pictures, Columbia Pictures, Point Grey Pictures
Продолжительность: 01:28:45
Перевод: Дубляж | лицензия

Файл
Кодек: AVC
Качество: BDRip-AVC | Исх. BDRemux 1080p |
Видео: 800x432, 1100 kbps, 23,976 fps, 0,133 Bits/(Pixel*Frame)
Звук: AAC, 48 kHz, 2 ch, 72 kbps
Субтитры: русские форсированные, руские полные, английские полные, английские SDH
Общее
Unique ID : 172538244967731933381160675525614442319 (0x81CDA841C490D868AA6396B29C4D174F)
Complete name : E:\Sausage.Party.2016.BDRip-AVC.MegaPeer.mkv
Format : Matroska
Format version : Version 4 / Version 2
File size : 746 Мбайт
Duration : 1 ч. 28 м.
Overall bit rate : 1174 Кбит/сек
Encoded date : UTC 2017-07-29 21:25:59
Writing application : mkvmerge v14.0.0 ('Flow') 64bit
Writing library : libebml v1.3.4 + libmatroska v1.4.5

Видео
ID : 1
Format : AVC
Format/Info : Advanced Video Codec
Format profile : High@L4.1
Format settings, CABAC : Да
Format settings, ReFrames : 12 кадров
Codec ID : V_MPEG4/ISO/AVC
Duration : 1 ч. 28 м.
Bit rate : 1100 Кбит/сек
Width : 800 пикселей
Height : 432 пикселя
Display aspect ratio : 1,85:1
Frame rate mode : Постоянный
Frame rate : 23,976 (24000/1001) кадра/сек
Color space : YUV
Chroma subsampling : 4:2:0
Bit depth : 8 бит
Scan type : Прогрессивная
Bits/(Pixel*Frame) : 0.133
Stream size : 698 Мбайт (94%)
Writing library : x264 core 152 r2851 ba24899
Encoding settings : cabac=1 / ref=12 / deblock=1:-3:-3 / analyse=0x3:0x133 / me=umh / subme=11 / psy=1 / psy_rd=1.00:0.04 / mixed_ref=1 / me_range=32 / chroma_me=1 / trellis=2 / 8x8dct=1 / cqm=0 / deadzone=21,11 / fast_pskip=0 / chroma_qp_offset=-3 / threads=12 / lookahead_threads=3 / sliced_threads=0 / nr=0 / decimate=0 / interlaced=0 / bluray_compat=0 / constrained_intra=0 / bframes=16 / b_pyramid=2 / b_adapt=2 / b_bias=0 / direct=3 / weightb=1 / open_gop=0 / weightp=2 / keyint=240 / keyint_min=23 / scenecut=0 / intra_refresh=0 / rc_lookahead=60 / rc=2pass / mbtree=1 / bitrate=1100 / ratetol=1.0 / qcomp=0.60 / qpmin=0 / qpmax=51 / qpstep=4 / cplxblur=15.0 / qblur=0.5 / vbv_maxrate=50000 / vbv_bufsize=62500 / nal_hrd=none / filler=0 / ip_ratio=1.40 / aq=2:1.00
Default : Да
Forced : Нет

Аудио
ID : 2
Format : AAC
Format/Info : Advanced Audio Codec
Format profile : LC
Codec ID : A_AAC
Duration : 1 ч. 28 м.
Bit rate : 72,0 Кбит/сек
Channel(s) : 2 канала
Channel positions : Front: L R
Sampling rate : 48,0 КГц
Frame rate : 46,875 кадров/сек (1024 spf)
Compression mode : С потерями
Delay relative to video : 9 мс.
Stream size : 45,7 Мбайт (6%)
Language : Russian
Default : Да
Forced : Нет

Текст #1
ID : 3
Format : UTF-8
Codec ID : S_TEXT/UTF8
Codec ID/Info : UTF-8 Plain Text
Duration : 1 ч. 22 м.
Bit rate : 4 бит/сек
Count of elements : 53
Stream size : 2,45 Кбайт (0%)
Title : Forced
Language : Russian
Default : Да
Forced : Да

Текст #2
ID : 4
Format : UTF-8
Codec ID : S_TEXT/UTF8
Codec ID/Info : UTF-8 Plain Text
Duration : 1 ч. 22 м.
Bit rate : 131 бит/сек
Count of elements : 1416
Stream size : 79,7 Кбайт (0%)
Title : Full
Language : Russian
Default : Нет
Forced : Нет

Текст #3
ID : 5
Format : UTF-8
Codec ID : S_TEXT/UTF8
Codec ID/Info : UTF-8 Plain Text
Duration : 1 ч. 26 м.
Bit rate : 85 бит/сек
Count of elements : 1457
Stream size : 53,8 Кбайт (0%)
Title : Full
Language : English
Default : Нет
Forced : Нет

Текст #4
ID : 6
Format : UTF-8
Codec ID : S_TEXT/UTF8
Codec ID/Info : UTF-8 Plain Text
Duration : 1 ч. 27 м.
Bit rate : 91 бит/сек
Count of elements : 1703
Stream size : 58,0 Кбайт (0%)
Title : SDH
Language : English
Default : Нет
Forced : Нет

Меню
00:00:00.000 : en:00:00:00.000
00:04:24.264 : en:00:04:24.264
00:10:19.118 : en:00:10:19.118
00:15:27.844 : en:00:15:27.844
00:19:32.171 : en:00:19:32.171
00:24:53.701 : en:00:24:53.701
00:29:32.938 : en:00:29:32.938
00:35:44.142 : en:00:35:44.142
00:41:55.263 : en:00:41:55.263
00:48:18.521 : en:00:48:18.521
00:54:45.908 : en:00:54:45.908
00:59:54.508 : en:00:59:54.508
01:03:47.073 : en:01:03:47.073
01:08:01.286 : en:01:08:01.286
01:11:55.811 : en:01:11:55.811
01:16:03.809 : en:01:16:03.809
Релиз:



Скачать Полный.расколбас.Sausage.Party.(Грег.Тирнан.Конрад.Вернон).[2016.г.мультфильм.фэнтези.комедия.приключения.BDRip-AVC].[DUB].torrent без регистрации
Золото ЗОЛОТАЯ РАЗДАЧА! СКАЧАННОЕ НЕ ЗАСЧИТЫВАЕТСЯ! Золото
Дата: Зарегистрирован   [ Тип: внутренний ] Как тут cкачать?
MAGNET ссылка
MAGNET ссылка


Скачать .torrent

15 KB

Статус: проверено DHT
Скачан: торрент - 106 раз, раздача полностью - 122 раз
Размер: 746 MB
Оценка:  - (Голосов: 0)
Поблагодарили: 4
Поделиться ссылкой на эту раздачу с друзьями:
В контактеFacebookОдноклассникиTwitterLivejournalМой МирLiveinternet
 

 
Показать сообщения:    


Вы не можете начинать темы
Вы не можете отвечать на сообщения
Вы не можете редактировать свои сообщения
Вы не можете удалять свои сообщения
Вы не можете голосовать в опросах
Вы не можете прикреплять файлы к сообщениям
Вы можете скачивать файлы