Loading...
Error

Скачать Перестрелка / Free Fire (Бен Уитли) [2016, Боевик, триллер, криминал, BDRip][1080p] [DUB RUS UKR iTunes] [R.G. GoldenShara] торрент без регистрации

Статистика раздачи
Размер:  4,37 GB   |    Скачан:  348 раз

Полного источника не было: 11 часов

 
 
 
Автор Сообщение

Magnetto83

[] 


Перестрелка / Free Fire


Год выпуска: 2016
Выпущено: Великобритания | Film4, Protagonist Pictures, Rook Films
Жанр: Боевик, триллер, криминал
Продолжительность: 01:30:34
Перевод: Профессиональный (полное дублирование) | iTunes |
Субтитры: Английские (Full)
Навигация по главам: Сохранены оригинальные главы как на Blu-ray

Слоган: «Чем больше оружия, тем круче хаос»

Режиссер: Бен Уитли

В ролях: Энцо Чиленти, Сэм Райли, Майкл Смайли, Бри Ларсон, Киллиан Мёрфи, Арми Хаммер, Шарлто Копли, Бабу Сизей, Ноа Тейлор, Джек Рейнор

Описание: Когда подпольная сделка по продаже оружия феерически летит под откос, целый склад превращается в масштабное поле битвы. Слова закончились, и заговорили стволы. Приз в игре на выживание — кейс с большой суммой денег, но унести его не так просто. Здесь вооружены все, каждый сам за себя, а хаос правит бал.



Возраст: 18+ (зрителям, достигшим 18 лет. запрещено для детей)
Рейтинг MPAA: R (лицам до 17 лет обязательно присутствие взрослого)

Качество: BDRip 1080p
Формат: MKV
Видео кодек: H.264
Аудио кодек: AC3
Видео: 1920x804 (2.40:1), 6137 Кбит/с, 23.976 fps
Аудио 1: Русский Dolby Digital 5.1 (384 Кбит/с)
Аудио 2: Украинский Dolby Digital 5.1 (384 Кбит/с)


x264 [info]: frame I:998 Avg QP:14.85 size:165595
x264 [info]: frame P:30009 Avg QP:17.75 size: 59291
x264 [info]: frame B:99290 Avg QP:20.27 size: 22376
x264 [info]: consecutive B-frames: 2.4% 4.0% 10.7% 17.4% 23.6% 34.3% 4.1% 1.1% 2.4%
x264 [total]: encoded 130297 frames, 0.82 fps, 6133.09 kb/s



General
Complete name : D:\Video\HD\Собственные Рипы 1080р\Собственные Рипы 1080р Выложенные\Перестрелка 2016 Dub Rus Ukr iTunes BDRip 1080p.mkv
Format : Matroska
Format version : Version 4 / Version 2
File size : 4.37 GiB
Duration : 1h 30mn
Overall bit rate : 6 903 Kbps
Movie name : Перестрелка 2016 Dub Rus Ukr BDRip 1080p By R.G.GoldenShara
Encoded date : UTC 2017-07-27 22:09:57
Writing application : mkvmerge v7.0.0 ('Where We Going') 64bit built on Jun 9 2014 15:16:27
Writing library : libebml v1.3.0 + libmatroska v1.4.1
Attachements : cover
DURATION : 01:22:13.186000000
NUMBER_OF_FRAMES : 1194
NUMBER_OF_BYTES : 38236
_STATISTICS_WRITING_APP : mkvmerge v7.0.0 ('Where We Going') 64bit built on Jun 9 2014 15:16:27
_STATISTICS_WRITING_DATE_UTC : 2017-07-27 22:09:57
_STATISTICS_TAGS : BPS DURATION NUMBER_OF_FRAMES NUMBER_OF_BYTES

Video
ID : 1
Format : AVC
Format/Info : Advanced Video Codec
Format profile : High@L4.1
Format settings, CABAC : Yes
Format settings, ReFrames : 5 frames
Codec ID : V_MPEG4/ISO/AVC
Duration : 1h 30mn
Bit rate : 6 137 Kbps
Width : 1 920 pixels
Height : 804 pixels
Display aspect ratio : 2.40:1
Frame rate mode : Constant
Frame rate : 23.976 fps
Color space : YUV
Chroma subsampling : 4:2:0
Bit depth : 8 bits
Scan type : Progressive
Bits/(Pixel*Frame) : 0.166
Stream size : 3.79 GiB (87%)
Title : Перестрелка 2016 BDRip 1080p By Magnetto 83
Writing library : x264 core 146 r2538 121396c
Encoding settings : cabac=1 / ref=5 / deblock=1:-3:-3 / analyse=0x3:0x113 / me=umh / subme=11 / psy=1 / psy_rd=1.00:0.00 / mixed_ref=1 / me_range=32 / chroma_me=1 / trellis=2 / 8x8dct=1 / cqm=0 / deadzone=21,11 / fast_pskip=0 / chroma_qp_offset=-2 / threads=3 / lookahead_threads=1 / sliced_threads=0 / nr=0 / decimate=1 / interlaced=0 / bluray_compat=0 / constrained_intra=0 / bframes=8 / b_pyramid=2 / b_adapt=2 / b_bias=0 / direct=3 / weightb=1 / open_gop=0 / weightp=2 / keyint=250 / keyint_min=23 / scenecut=40 / intra_refresh=0 / rc=2pass / mbtree=0 / bitrate=6137 / ratetol=1.0 / qcomp=0.60 / qpmin=0 / qpmax=69 / qpstep=4 / cplxblur=20.0 / qblur=0.5 / ip_ratio=1.40 / pb_ratio=1.30 / aq=2:1.00
Language : English
Default : Yes
Forced : No

Audio #1
ID : 2
Format : AC-3
Format/Info : Audio Coding 3
Mode extension : CM (complete main)
Format settings, Endianness : Big
Codec ID : A_AC3
Duration : 1h 30mn
Bit rate mode : Constant
Bit rate : 384 Kbps
Channel(s) : 6 channels
Channel positions : Front: L C R, Side: L R, LFE
Sampling rate : 48.0 KHz
Compression mode : Lossy
Stream size : 249 MiB (6%)
Title : DD 5.1 @ 384 kbps - Dub Rus | iTunes |
Language : Russian
Default : Yes
Forced : No

Audio #2
ID : 3
Format : AC-3
Format/Info : Audio Coding 3
Mode extension : CM (complete main)
Format settings, Endianness : Big
Codec ID : A_AC3
Duration : 1h 30mn
Bit rate mode : Constant
Bit rate : 384 Kbps
Channel(s) : 6 channels
Channel positions : Front: L C R, Side: L R, LFE
Sampling rate : 44.1 KHz
Compression mode : Lossy
Stream size : 249 MiB (6%)
Title : DD 5.1 @ 384 kbps - Dub Ukr | iTunes |
Language : Ukrainian
Default : No
Forced : No

Text
ID : 4
Format : UTF-8
Codec ID : S_TEXT/UTF8
Codec ID/Info : UTF-8 Plain Text
Title : Full
Language : English
Default : No
Forced : No

Menu
00:00:00.000 : en:Chapter 1
00:07:31.368 : en:Chapter 2
00:09:32.655 : en:Chapter 3
00:15:12.036 : en:Chapter 4
00:20:35.693 : en:Chapter 5
00:27:40.867 : en:Chapter 6
00:32:48.300 : en:Chapter 7
00:37:54.022 : en:Chapter 8
00:43:09.795 : en:Chapter 9
00:48:48.008 : en:Chapter 10
00:54:27.639 : en:Chapter 11
00:59:18.096 : en:Chapter 12
01:05:36.432 : en:Chapter 13
01:09:08.102 : en:Chapter 14
01:15:16.887 : en:Chapter 15
01:22:35.117 : en:Chapter 16







Скачать Перестрелка.Free.Fire.(Бен.Уитли).[2016.Боевик.триллер.криминал.BDRip][1080p].[DUB.RUS.UKR.iTunes].[R.G.GoldenShara].torrent без регистрации
Золото ЗОЛОТАЯ РАЗДАЧА! СКАЧАННОЕ НЕ ЗАСЧИТЫВАЕТСЯ! Золото
Дата: Зарегистрирован   [ Тип: внутренний ] Как тут cкачать?
MAGNET ссылка
MAGNET ссылка


Скачать .torrent

11 KB

Статус: проверено
Скачан: торрент - 348 раз, раздача полностью - 257 раз
Размер: 4,37 GB
Оценка:  5 (Голосов: 3)
Поблагодарили: 11
Поделиться ссылкой на эту раздачу с друзьями:
В контактеFacebookОдноклассникиTwitterLivejournalМой МирLiveinternet
 

 

Kitaec1

[] 

Как всегда на высоте, благодарен. ab
 

Magnetto83

[] 

az Пожалуйста, Kitaec1! bs
 
Показать сообщения:    


Вы не можете начинать темы
Вы не можете отвечать на сообщения
Вы не можете редактировать свои сообщения
Вы не можете удалять свои сообщения
Вы не можете голосовать в опросах
Вы не можете прикреплять файлы к сообщениям
Вы можете скачивать файлы