Loading...
Error

Скачать Невеста (Святослав Подгаевский) [2017, ужасы, триллер, BDRip] [1080p] [GER Transfer] [Лицензия] [R.G. Goldenshara] торрент без регистрации

Статистика раздачи
Размер:  4,37 GB   |    Скачан:  90 раз
Сидов:  1  [  0 KB/s  ]  
 
 
 
Автор Сообщение

sobmaster

[] 

Невеста


Год выпуска: 2017

Страна: Россия
Выпущено: ДЕСЯТЬ НОЛЬ ДЕВЯТЬ, Focus Plus Cinema, Planeta Inform
Жанр: ужасы, триллер

Продолжительность: 01:35:37
Перевод: Не требуется

Режиссер: Святослав Подгаевский
Сценарий: Святослав Подгаевский
Продюсер: Владислав Северцев, Дмитрий Литвинов, Заур Болотаев
Оператор: Иван Бурлаков
Композитор : Халфдан И. Нильсен, Джеспер Хансен
Монтаж: Руслан Габдрахманов

В ролях:


Виктория Агалакова (Настя), Вячеслав Чепурченко (Иван), Александра Ребенок (Лиза), Игорь Хрипунов (фотограф), Анастасия Акатова (соседка Насти), Виктор Соловьев (отец Вани и Лизы), Мария Арнаут (служанка фотографа), Лада Чуровская (живая невеста), Евгений Коряковский (преподаватель Насти), Татьяна Филатова (регистратор в ЗАГСе), Дмитрий Марин (приказчик), Дмитрий Куличков (крестьянский мужик), Мария Клюквина (женщина 1), Татьяна Клюкина (женщина 2), Наталья Гриншпун (Аглая)

Бюджет: 70 000 000 руб.
Маркетинг: RUB 50 000 000
Сборы в России: $3 149 022
Зрители: Россия 785.5 тыс.

Мировая премьера: 27 января 2017
Премьера (РФ): 19 января 2017, «Каропрокат»
MPAA: - Лицам до 17 лет обязательно присутствие взрослого

Описание: После свадьбы Настя уговаривает мужа взять её с собой к его родственникам, которые живут в маленьком, почти заброшенном городке. Но скоро начинает сожалеть о своей просьбе. Семья Вани хочет провести таинственный свадебный обряд по своим традициям, и Настю начинают пугать страшные сны и непонятные предчувствия. Попытка понять что происходит, приводит девушку к жуткой находке — шкатулке с фотографиями мертвых людей.



Качество: BDRip 1080p
Контейнер: MKV
Видео: AVC, 1920x800 (2.40:1), 6098 kbps, 23.976 fps, 0.166 bpp
Аудио: русский /; AC3 /; 5.1 /; 48 kHz /; 448 kbps /; 16 bit; ||
Навигация по главам: есть


АНОНСЫ ПОПУЛЯРНЫХ РАЗДАЧ

Код:

General
Unique ID                   : 191700991383339065707813797930183555327 (0x9038449982C516A8A7A7B62DBE55F8FF)
Complete name               : E:\Мои рипы\Невеста.2017.BDRip.1080p.Rus.mkv
Format                      : Matroska
Format version              : Version 4 / Version 2
File size                   : 4.37 GiB
Duration                    : 1 h 35 min
Overall bit rate            : 6 542 kb/s
Movie name                  : The.Bride.2017   #TorpedoUK#
Encoded date                : UTC 2017-08-02 19:04:40
Writing application         : mkvmerge v6.8.0 ('Theme for Great Cities') 32bit built on Mar  2 2014 21:27:07
Writing library             : libebml v1.3.0 + libmatroska v1.4.1

Video
ID                          : 1
Format                      : AVC
Format/Info                 : Advanced Video Codec
Format profile              : High@L4.1
Format settings, CABAC      : Yes
Format settings, ReFrames   : 5 frames
Codec ID                    : V_MPEG4/ISO/AVC
Duration                    : 1 h 35 min
Bit rate                    : 6 098 kb/s
Width                       : 1 920 pixels
Height                      : 800 pixels
Display aspect ratio        : 2.40:1
Frame rate mode             : Constant
Frame rate                  : 23.976 FPS
Color space                 : YUV
Chroma subsampling          : 4:2:0
Bit depth                   : 8 bits
Scan type                   : Progressive
Bits/(Pixel*Frame)          : 0.166
Stream size                 : 3.98 GiB (91%)
Writing library             : x264 core 146 r2538 121396c
Encoding settings           : cabac=1 / ref=5 / deblock=1:-3:-3 / analyse=0x3:0x113 / me=umh / subme=11 / psy=1 / psy_rd=1.00:0.15 / mixed_ref=1 / me_range=48 / chroma_me=1 / trellis=2 / 8x8dct=1 / cqm=0 / deadzone=21,11 / fast_pskip=0 / chroma_qp_offset=-4 / threads=6 / lookahead_threads=1 / sliced_threads=0 / nr=0 / decimate=1 / interlaced=0 / bluray_compat=0 / constrained_intra=0 / bframes=8 / b_pyramid=2 / b_adapt=2 / b_bias=0 / direct=2 / weightb=1 / open_gop=0 / weightp=2 / keyint=250 / keyint_min=23 / scenecut=40 / intra_refresh=0 / rc_lookahead=50 / rc=2pass / mbtree=0 / bitrate=6098 / ratetol=1.0 / qcomp=0.60 / qpmin=0 / qpmax=69 / qpstep=4 / cplxblur=20.0 / qblur=0.5 / vbv_maxrate=14000 / vbv_bufsize=14000 / nal_hrd=none / filler=0 / ip_ratio=1.40 / pb_ratio=1.30 / aq=2:1.00
Language                    : Russian
Default                     : Yes
Forced                      : No
Color range                 : Limited
Color primaries             : Generic film
Matrix coefficients         : YCgCo

Audio
ID                          : 2
Format                      : AC-3
Format/Info                 : Audio Coding 3
Mode extension              : CM (complete main)
Format settings, Endianness : Big
Codec ID                    : A_AC3
Duration                    : 1 h 35 min
Bit rate mode               : Constant
Bit rate                    : 448 kb/s
Channel(s)                  : 6 channels
Channel positions           : Front: L C R, Side: L R, LFE
Sampling rate               : 48.0 kHz
Frame rate                  : 31.250 FPS (1536 spf)
Compression mode            : Lossy
Stream size                 : 306 MiB (7%)
Language                    : Russian
Default                     : Yes
Forced                      : No

Menu
00:00:00.000                : en:Chapter 1
00:09:37.285                : en:Chapter 2
00:16:03.754                : en:Chapter 3
00:23:36.957                : en:Chapter 4
00:30:27.659                : en:Chapter 5
00:38:54.790                : en:Chapter 6
00:46:40.255                : en:Chapter 7
00:53:40.842                : en:Chapter 8
01:01:15.296                : en:Chapter 9
01:11:00.464                : en:Chapter 10
01:19:08.201                : en:Chapter 11
01:27:11.684                : en:Chapter 12
Раздаю ночью с 0.00 до 7.00 до 5 скачавших. На раздачи не возвращаюсь.



Скачать Невеста.(Святослав.Подгаевский).[2017.ужасы.триллер.BDRip].[1080p].[GER.Transfer].[Лицензия].[R.G.Goldenshara].torrent без регистрации
Золото ЗОЛОТАЯ РАЗДАЧА! СКАЧАННОЕ НЕ ЗАСЧИТЫВАЕТСЯ! Золото
Дата: Зарегистрирован   [ Тип: внутренний ] Как тут cкачать?
MAGNET ссылка
MAGNET ссылка


Скачать .torrent

11 KB

Статус: проверено DHT
Скачан: торрент - 90 раз, раздача полностью - 160 раз
Размер: 4,37 GB
Оценка:  5 (Голосов: 3)
Поблагодарили: 10
Поделиться ссылкой на эту раздачу с друзьями:
В контактеFacebookОдноклассникиTwitterLivejournalМой МирLiveinternet
 

 
Показать сообщения:    


Вы не можете начинать темы
Вы не можете отвечать на сообщения
Вы не можете редактировать свои сообщения
Вы не можете удалять свои сообщения
Вы не можете голосовать в опросах
Вы не можете прикреплять файлы к сообщениям
Вы можете скачивать файлы