Loading...
Error

Скачать Наваждение / Unforgettable (Дениз Ди Нови) [2017, Триллер, драма, BDRip][1080p] [DUB Лицензия] [R.G. GoldenShara] торрент без регистрации

Статистика раздачи
Размер:  4,36 GB   |    Скачан:  110 раз

Полного источника не было: 30 дней

 
 
 
Автор Сообщение

Magnetto83

[] 


Наваждение / Unforgettable


Год выпуска: 2017
Выпущено: США | DiNovi Pictures
Жанр: Триллер, драма
Продолжительность: 01:40:08
Перевод: Профессиональный (полное дублирование) | Blu-ray CEE |
Субтитры: Русские (forced, full), английские (SDH)
Навигация по главам: Сохранены оригинальные главы как на Blu-ray

Слоган: «Когда умирает любовь, наступает безумие»

Режиссер: Дениз Ди Нови

В ролях: Розарио Доусон, Кэтрин Хейгл, Джофф Стульц, Шерил Лэдд, Уитни Каммингс, Роберт Уиздом, Саймон Кассианидес, Джэйсон Блэр, Изабелла Кай Райс, Алекс Кихано

Описание: Тесса Конновер (Кэтрин Хейгл) с трудом переживает конец своего некогда счастливого брака. Особенно тяжело ей принять, что бывший муж Дэвид (Джефф Сталтс) движется по жизни дальше и уже нашел своё счастье с новой возлюбленной Джулией Бэнкс (Розарио Доусон) – приведя девушку не только в их некогда общий дом, но и в жизнь их дочери Лилли (Изабелла Райс). Пытаясь освоиться в своей новой роли в качестве жены и мачехи, Джулия считает, что наконец-то встретила мужчину своей мечты, человека, который может помочь ей оставить ее собственное тяжелое прошлое позади. Но ревность Тессы вскоре принимает патологический характер, и она ни перед чем не остановится, чтобы превратить мечту Джулии в настоящий кошмар. Психологический триллер «Незабываемое» стал режиссерским дебютом продюсера Дениз Ди Нови, принимающей непосредственной участие в создании большого количества кинохитов, а также неоднократно сотрудничавшей с мрачным сказочником Голливуда Тимом Бёртоном.



Возраст: 18+ (зрителям, достигшим 18 лет. запрещено для детей)
Рейтинг MPAA: R (лицам до 17 лет обязательно присутствие взрослого)

Качество: BDRip 1080p
Формат: MKV
Видео кодек: H.264
Аудио кодек: AC3
Видео: 1920x1080 (16:9), 5793 Кбит/с, 23.976 fps
Аудио: Русский Dolby Digital 5.1 (448 Кбит/с)


x264 [info]: frame I:1242 Avg QP:15.76 size:231435
x264 [info]: frame P:30172 Avg QP:18.79 size: 62898
x264 [info]: frame B:112635 Avg QP:21.42 size: 19181
x264 [info]: consecutive B-frames: 1.9% 2.5% 7.1% 12.6% 25.1% 39.6% 8.6% 1.3% 1.3%
x264 [total]: encoded 144049 frames, 1.16 fps, 5786.39 kb/s



General
Complete name : G:\Видео\Мои Рипы 1080p\Кино-Хиты 2017\Наваждение 2017 Dub Rus BDRip 1080p.mkv
Format : Matroska
Format version : Version 4 / Version 2
File size : 4.36 GiB
Duration : 1h 40mn
Overall bit rate : 6 237 Kbps
Movie name : Наваждение 2017 Dub Rus BDRip 1080p By R.G.GoldenShara
Encoded date : UTC 2017-07-30 18:28:25
Writing application : mkvmerge v7.0.0 ('Where We Going') 64bit built on Jun 9 2014 15:16:27
Writing library : libebml v1.3.0 + libmatroska v1.4.1
Attachements : cover_land.jpg / small_cover.jpg
DURATION : 01:39:04.312000000
NUMBER_OF_FRAMES : 1320
NUMBER_OF_BYTES : 36570
_STATISTICS_WRITING_APP : mkvmerge v7.0.0 ('Where We Going') 64bit built on Jun 9 2014 15:16:27
_STATISTICS_WRITING_DATE_UTC : 2017-07-30 18:28:25
_STATISTICS_TAGS : BPS DURATION NUMBER_OF_FRAMES NUMBER_OF_BYTES

Video
ID : 1
Format : AVC
Format/Info : Advanced Video Codec
Format profile : High@L4.1
Format settings, CABAC : Yes
Format settings, ReFrames : 4 frames
Codec ID : V_MPEG4/ISO/AVC
Duration : 1h 40mn
Bit rate : 5 793 Kbps
Width : 1 920 pixels
Height : 1 080 pixels
Display aspect ratio : 16:9
Frame rate mode : Constant
Frame rate : 23.976 fps
Color space : YUV
Chroma subsampling : 4:2:0
Bit depth : 8 bits
Scan type : Progressive
Bits/(Pixel*Frame) : 0.117
Stream size : 3.96 GiB (91%)
Title : Наваждение 2017 BDRip 1080p By Magnetto 83
Writing library : x264 core 146 r2538 121396c
Encoding settings : cabac=1 / ref=4 / deblock=1:-3:-3 / analyse=0x3:0x113 / me=umh / subme=11 / psy=1 / psy_rd=1.00:0.00 / mixed_ref=1 / me_range=32 / chroma_me=1 / trellis=2 / 8x8dct=1 / cqm=0 / deadzone=21,11 / fast_pskip=0 / chroma_qp_offset=-2 / threads=3 / lookahead_threads=1 / sliced_threads=0 / nr=0 / decimate=1 / interlaced=0 / bluray_compat=0 / constrained_intra=0 / bframes=8 / b_pyramid=2 / b_adapt=2 / b_bias=0 / direct=3 / weightb=1 / open_gop=0 / weightp=2 / keyint=250 / keyint_min=23 / scenecut=40 / intra_refresh=0 / rc=2pass / mbtree=0 / bitrate=5793 / ratetol=1.0 / qcomp=0.60 / qpmin=0 / qpmax=69 / qpstep=4 / cplxblur=20.0 / qblur=0.5 / ip_ratio=1.40 / pb_ratio=1.30 / aq=2:1.00
Language : English
Default : Yes
Forced : No

Audio
ID : 2
Format : AC-3
Format/Info : Audio Coding 3
Mode extension : CM (complete main)
Format settings, Endianness : Big
Codec ID : A_AC3
Duration : 1h 40mn
Bit rate mode : Constant
Bit rate : 448 Kbps
Channel(s) : 6 channels
Channel positions : Front: L C R, Side: L R, LFE
Sampling rate : 48.0 KHz
Compression mode : Lossy
Stream size : 321 MiB (7%)
Title : DD 5.1 @448 Kbps - Дубляж | Blu-ray CEE |
Language : Russian
Default : Yes
Forced : No

Text #1
ID : 3
Format : UTF-8
Codec ID : S_TEXT/UTF8
Codec ID/Info : UTF-8 Plain Text
Title : Форс.
Language : Russian
Default : Yes
Forced : No

Text #2
ID : 4
Format : UTF-8
Codec ID : S_TEXT/UTF8
Codec ID/Info : UTF-8 Plain Text
Title : Полные
Language : Russian
Default : No
Forced : No

Text #3
ID : 5
Format : UTF-8
Codec ID : S_TEXT/UTF8
Codec ID/Info : UTF-8 Plain Text
Title : Full (SDH)
Language : English
Default : No
Forced : No

Menu
00:00:00.000 : en:00:00:00.000
00:05:33.041 : en:00:05:33.041
00:12:39.592 : en:00:12:39.592
00:17:26.003 : en:00:17:26.003
00:22:56.917 : en:00:22:56.917
00:28:27.164 : en:00:28:27.164
00:34:30.902 : en:00:34:30.902
00:39:03.508 : en:00:39:03.508
00:45:07.663 : en:00:45:07.663
00:50:48.629 : en:00:50:48.629
00:56:50.907 : en:00:56:50.907
01:02:46.763 : en:01:02:46.763
01:07:09.317 : en:01:07:09.317
01:12:15.540 : en:01:12:15.540
01:16:50.606 : en:01:16:50.606
01:23:16.992 : en:01:23:16.992







Скачать Наваждение.Unforgettable.(Дениз.Ди.Нови).[2017.Триллер.драма.BDRip][1080p].[DUB.Лицензия].[R.G.GoldenShara].torrent без регистрации
Золото ЗОЛОТАЯ РАЗДАЧА! СКАЧАННОЕ НЕ ЗАСЧИТЫВАЕТСЯ! Золото
Дата: Зарегистрирован   [ Тип: внутренний ] Как тут cкачать?
MAGNET ссылка
MAGNET ссылка


Скачать .torrent

11 KB

Статус: проверено
Скачан: торрент - 110 раз, раздача полностью - 151 раз
Размер: 4,36 GB
Оценка:  5 (Голосов: 5)
Поблагодарили: 12
Поделиться ссылкой на эту раздачу с друзьями:
В контактеFacebookОдноклассникиTwitterLivejournalМой МирLiveinternet
 

 
Показать сообщения:    


Вы не можете начинать темы
Вы не можете отвечать на сообщения
Вы не можете редактировать свои сообщения
Вы не можете удалять свои сообщения
Вы не можете голосовать в опросах
Вы не можете прикреплять файлы к сообщениям
Вы можете скачивать файлы