Loading...
Error

Скачать Озарк / Ozark (Сезон 01) (Эндрю Бернштейн, Эллен Кёрас, Дэниэл Сакхайм) [2017, триллер, драма, криминал, WEBRip] [MVO] (Кубик в Кубе) + [Orig] торрент без регистрации

Статистика раздачи
Размер:  7,43 GB   |    Скачан:  31 раз
Сидов:  1  [  0 KB/s  ]  
 
 
 
Автор Сообщение

leon030982

[] 

Озарк / Ozark
Год выпуска: 2017
Страна: США
Жанр: триллер, драма, криминал
Продолжительность: 00:55:00
Перевод: Профессиональный (двухголосый, закадровый) Кубик в Кубе
Субтитры: нет

Режиссёр: Эндрю Бернштейн, Эллен Кёрас, Дэниэл Сакхайм

В ролях: Джейсон Бейтман, Джейсон Батлер Харнер, Энтони Коллинс, София Хьюблиц, Лора Линни, Скайлар Гертнер, Кристофер Джеймс Бэйкер, Марк Менчака и др.

Описание: Финансовый консультант Марти Бёрд вместе с женой Вэнди и остальными членами семьи вынужден тайно переехать из престижного предместья Чикаго в курортный городок Озарк штата Миссури. К неожиданному переезду главного героя вынудили крупные долги, и на новом месте он надеется поправить своё финансовое положение.



Качество: WEBRip
Формат: AVI
Видео: XvID, 720x360, ~ 1300 Кбит/с, 23.976 fps
Аудио: AC3, 48 kHz, 6 ch, 384 kbps, CBR
General
Complete name : E:\Ozark.S01.Sugarwood.XviD.WEBRip.dd51.KvK\Ozark.S01E01.Sugarwood.XviD.WEBRip.dd51.KvK.avi
Format : AVI
Format/Info : Audio Video Interleave
File size : 663 MiB
Duration : 58mn 10s
Overall bit rate : 1 594 Kbps
Movie name : Ozark 01x01 (Sugarwood) -release by messafan for CasStudio
Writing application : Lavf56.36.100

Video
ID : 0
Format : xvid
Codec ID : xvid
Duration : 58mn 8s
Bit rate : 1 138 Kbps
Width : 720 pixels
Height : 360 pixels
Display aspect ratio : 2.000
Frame rate : 23.976 fps
Bits/(Pixel*Frame) : 0.183
Stream size : 473 MiB (71%)

Audio
ID : 1
Format : AC-3
Format/Info : Audio Coding 3
Codec ID : 00001000-0000-0020-8000-00AA00389B71
Duration : 58mn 10s
Bit rate : 384 Kbps
Channel(s) : 6 channels
Channel positions : Front: L C R, Side: L R, LFE
Sampling rate : 48.0 KHz
Bit depth : 16 bits
Compression mode : Lossy
Stream size : 160 MiB (24%)
Title : KvK 5.1
(1) остановить скачивание,
(2) удалить старый торрент у себя из клиента (старые серии удалять не надо),
(3) скачать новый торрент и запустить его у себя в клиенте вместо старого, при этом указать клиенту путь в старую папку куда и должно происходить скачивание новых серий.
Ваш клиент при этом должен произвести хеширование (проверку) старой папки (если не производит сам - помогите ему сделать это), и будет докачивать только те серии которых у вас ещё нет. Старые серии при этом не удаляются, а продолжают раздаваться!
Eсли вы уже удалили старые серии, то предотвратить повторную закачку старых серий можно, отжав галочку в соответсвующих местах при запуске нового торрента. По возможности, желательно не удалять старые серии как можно дольше чтобы релизёр не столько продолжал раздавать старые серии, а смог сконцентрироваться на новых.



Скачать Озарк.Ozark.(Сезон.01).(Эндрю.Бернштейн.Эллен.Кёрас.Дэниэл.Сакхайм).[2017.триллер.драма.криминал.WEBRip].[MVO].(Кубик.в.Кубе).+.[Orig].torrent без регистрации
Золото ЗОЛОТАЯ РАЗДАЧА! СКАЧАННОЕ НЕ ЗАСЧИТЫВАЕТСЯ! Золото
Дата: Зарегистрирован   [ Тип: внутренний ] Как тут cкачать?
MAGNET ссылка
MAGNET ссылка


Скачать .torrent

39 KB

Статус: проверено DHT
Скачан: торрент - 31 раз, раздача полностью - 0 раз
Размер: 7,43 GB
Оценка:  - (Голосов: 0)
Поблагодарили: 1
Поделиться ссылкой на эту раздачу с друзьями:
В контактеFacebookОдноклассникиTwitterLivejournalМой МирLiveinternet
 

 
Показать сообщения:    


Вы не можете начинать темы
Вы не можете отвечать на сообщения
Вы не можете редактировать свои сообщения
Вы не можете удалять свои сообщения
Вы не можете голосовать в опросах
Вы не можете прикреплять файлы к сообщениям
Вы можете скачивать файлы