Loading...
Error

Скачать Дракула 2000 / Dracula 2000 (Патрик Люссье) [2000, ужасы, фэнтези, боевик, триллер, BDRip] [1080p] [Dub (R5)] [R.G. Goldenshara] торрент без регистрации

Статистика раздачи
Размер:  4,37 GB   |    Скачан:  303 раза
Сидов:  1  [  0 KB/s  ]  
 
 
 
Автор Сообщение

sobmaster

[] 

Дракула 2000
Dracula 2000


Год выпуска: 2000

Страна: США
Выпущено: Carfax Productions Ltd., Dimension Films, Neo Art & Logic
Слоган: «19th Century Chills Terrify The 21st Century»
Жанр: ужасы, фэнтези, боевик, триллер

Продолжительность: 01:39:01
Перевод: Профессиональный (полное дублирование) (R5)

Режиссер: Патрик Люссье
Сценарий: Джоэль Сойзон, Патрик Люссье
Продюсер: В.К. Бордер, Джоэль Сойзон, Дэниэл К. Арредондо
Оператор: Питер Пау
Композитор : Марко Белтрами
Художник: Кэрол Спайэр, Элинор Роуз Гэлбрейт, Денис Кроненберг
Монтаж: Питер Девани Флэнеган, Патрик Люссье

В ролях:


Джерард Батлер (Dracula), Кристофер Пламмер (Abraham Van Helsing), Джонни Ли Миллер (Simon Sheppard), Джастин Уоддэлл (Mary Heller-Van Helsing), Витамин Си (Lucy Westerman), Дженнифер Эспозито (Solina), Омар Эппс (Marcus), Шон Патрик Томас (Trick), Дэнни Мастерсон (Nightshade), Локлин Манро (Eddie), Тиг Фонг (Dax), Тони Манч (Charlie)

Дублёры: Валерий Сторожик (Dracula), Всеволод Абдулов (Abraham Van Helsing), Денис Беспалый (Simon Sheppard), Ольга Сирина (Lucy Westerman), Ольга Голованова (Solina), Олег Куценко (Marcus), Александр Ливанов (Trick), Александр Рыжков (Eddie), Александр Груздев (JT), Леонид Белозорович (Father David), Дальвин Щербаков (Anchor Man; Gautreaux)

Бюджет: $54 000 000
Сборы в США: $33 022 767
Сборы в мире: $47 053 625
Зрители: США 6.05 млн , Германия 321.7 тыс. , Испания 312.8 тыс.

Мировая премьера: 22 декабря 2000
Премьера (РФ): 15 марта 2001, «West»
Релиз на DVD: 25 сентября 2001, «Videogram»
Рейтинг MPAA: Лицам до 17 лет обязательно присутствие взрослого

Описание: Банда воров, оснащенных по последнему слову техники, проникает в хранилище известного лондонского антиквара Ван Хелсинга. Прихватив добычу, они скрываются из страны... Обеспокоенный Ван Хелсинг отправляется по следам грабителей, а за ним его помощник Саймон, заинтригованный тайной антиквара.
Тот, с кем Саймон в итоге сталкивается, превосходит все ожидания! Его могущество безгранично, а деяния - ужасны! Его имя - Дракула. И лишь один человек на Земле знает правду. Но всей правды не знает никто!



Качество: BDRip 1080p
Контейнер: MKV
Видео: AVC, 1920x1080 (16:9), 5910 kbps, 23,976 fps, 0.119 bpp
Аудио: русский /; AC3 /; 5.1 /; 48 kHz /; 384 kbps /; 16 bit; ||
Субтитры №1: русские
Субтитры №2: английские


АНОНСЫ ПОПУЛЯРНЫХ РАЗДАЧ

Код:

General
Unique ID                                : 206399648288888529978774048212891500212 (0x9B4720562EFC48DC891042299D147EB4)
Complete name                            : E:\Фильмы\Дракула 2000 - Dracula 2000 (2000) ужасы, фэнтези, боевик, триллер.mkv
Format                                   : Matroska
Format version                           : Version 2
File size                                : 4.37 GiB
Duration                                 : 1h 39mn
Overall bit rate                         : 6 314 Kbps
Encoded date                             : UTC 2016-03-24 14:34:31
Writing application                      : mkvmerge v7.8.0 ('River Man') 32bit built on Apr  3 2015 12:11:22
Writing library                          : libebml v1.3.1 + libmatroska v1.4.2

Video
ID                                       : 1
Format                                   : AVC
Format/Info                              : Advanced Video Codec
Format profile                           : High@L4.1
Format settings, CABAC                   : Yes
Format settings, ReFrames                : 4 frames
Codec ID                                 : V_MPEG4/ISO/AVC
Duration                                 : 1h 39mn
Bit rate                                 : 5 910 Kbps
Width                                    : 1 920 pixels
Height                                   : 1 080 pixels
Display aspect ratio                     : 16:9
Frame rate mode                          : Constant
Frame rate                               : 23.976 fps
Color space                              : YUV
Chroma subsampling                       : 4:2:0
Bit depth                                : 8 bits
Scan type                                : Progressive
Bits/(Pixel*Frame)                       : 0.119
Stream size                              : 4.01 GiB (92%)
Title                                    : Дракула 2000 - Dracula 2000 (2000)
Writing library                          : x264 core 146 r2538 121396c
Encoding settings                        : cabac=1 / ref=4 / deblock=1:-1:-1 / analyse=0x3:0x113 / me=umh / subme=10 / psy=1 / psy_rd=1.00:0.00 / mixed_ref=1 / me_range=32 / chroma_me=1 / trellis=2 / 8x8dct=1 / cqm=0 / deadzone=21,11 / fast_pskip=0 / chroma_qp_offset=-2 / threads=3 / lookahead_threads=1 / sliced_threads=0 / nr=0 / decimate=1 / interlaced=0 / bluray_compat=0 / constrained_intra=0 / bframes=8 / b_pyramid=2 / b_adapt=2 / b_bias=0 / direct=3 / weightb=1 / open_gop=0 / weightp=2 / keyint=240 / keyint_min=24 / scenecut=40 / intra_refresh=0 / rc_lookahead=60 / rc=2pass / mbtree=0 / bitrate=5910 / ratetol=1.0 / qcomp=0.60 / qpmin=0 / qpmax=69 / qpstep=4 / cplxblur=20.0 / qblur=0.5 / vbv_maxrate=14000 / vbv_bufsize=14000 / nal_hrd=none / filler=0 / ip_ratio=1.40 / pb_ratio=1.30 / aq=2:1.00
Language                                 : English
Default                                  : Yes
Forced                                   : No

Audio
ID                                       : 2
Format                                   : AC-3
Format/Info                              : Audio Coding 3
Mode extension                           : CM (complete main)
Format settings, Endianness              : Big
Codec ID                                 : A_AC3
Duration                                 : 1h 39mn
Bit rate mode                            : Constant
Bit rate                                 : 384 Kbps
Channel(s)                               : 6 channels
Channel positions                        : Front: L C R, Side: L R, LFE
Sampling rate                            : 48.0 KHz
Bit depth                                : 16 bits
Compression mode                         : Lossy
Stream size                              : 272 MiB (6%)
Language                                 : Russian
Default                                  : Yes
Forced                                   : No

Text #1
ID                                       : 3
Format                                   : PGS
Muxing mode                              : zlib
Codec ID                                 : S_HDMV/PGS
Codec ID/Info                            : The same subtitle format used on BDs/HD-DVDs
Language                                 : Russian
Default                                  : No
Forced                                   : No

Text #2
ID                                       : 4
Format                                   : PGS
Muxing mode                              : zlib
Codec ID                                 : S_HDMV/PGS
Codec ID/Info                            : The same subtitle format used on BDs/HD-DVDs
Language                                 : English
Default                                  : No
Forced                                   : No
Раздаю ночью с 1.00 до 7.00 до 5 скачавших. На раздачи не возвращаюсь.



Скачать Дракула.2000.Dracula.2000.(Патрик.Люссье).[2000.ужасы.фэнтези.боевик.триллер.BDRip].[1080p].[Dub.(R5)].[R.G.Goldenshara].torrent без регистрации
Золото ЗОЛОТАЯ РАЗДАЧА! СКАЧАННОЕ НЕ ЗАСЧИТЫВАЕТСЯ! Золото
Дата: Зарегистрирован   [ Тип: внутренний ] Как тут cкачать?
MAGNET ссылка
MAGNET ссылка


Скачать .torrent

23 KB

Статус: проверено DHT
Скачан: торрент - 303 раз, раздача полностью - 130 раз
Размер: 4,37 GB
Оценка:  4,9 (Голосов: 7)
Поблагодарили: 18
Поделиться ссылкой на эту раздачу с друзьями:
В контактеFacebookОдноклассникиTwitterLivejournalМой МирLiveinternet
 

 

SanCinema

[] 

Респект, спасибо, уважение SobMaster за выполнение заказа, время и труды! bs ay
 

sobmaster

[] 

Помочь коллеге для меня всегда почётно! az
 

SanCinema

[] 

Спасибо SobMaster ещё раз! ab
Kачество картинки на высоте для тех времён!
ay

 

LORDKILL

[] 

При открытии скрина, на сайте появляется главная страница с запросом зарег-ся! Раньше такого не было!
 

SanCinema

[] 

LORDKILL писал(а):

При открытии скрина, на сайте появляется главная страница с запросом зарег-ся! Раньше такого не было!
У тебя?
 

sobmaster

[] 

Полное обновление релиза!!!
 

Rocco_S

[] 

спасибо. остальные часть в таком же качестве есть?
 

sobmaster

[] 

В работе.
 
Показать сообщения:    


Вы не можете начинать темы
Вы не можете отвечать на сообщения
Вы не можете редактировать свои сообщения
Вы не можете удалять свои сообщения
Вы не можете голосовать в опросах
Вы не можете прикреплять файлы к сообщениям
Вы можете скачивать файлы