Loading...
Error

Скачать Дракула 3: Наследие / Dracula III: Legacy (Патрик Люссье) [2005, ужасы, вампиры, BDRip] [1080p] [DVO (SUPERBIT)] + [MVO (West Video)] [R.G. Goldenshara] торрент без регистрации

Статистика раздачи
Размер:  4,37 GB   |    Скачан:  97 раз
Сидов:  1  [  0 KB/s  ]  
 
 
 
Автор Сообщение

sobmaster

[] 

Дракула 3: Наследие
Dracula III: Legacy


Год выпуска: 2005

Страна: США , Румыния
Выпущено: Castel Film Romania, Dimension Films
Жанр: ужасы, вампиры

Продолжительность: 01:30:45
Перевод #1: Профессиональный (двухголосый, закадровый) (SUPERBIT)
Перевод #2: Профессиональный (многоголосый, закадровый) (West Video)

Режиссер: Патрик Люссье
Сценарий: Джоэль Сойзон, Патрик Люссье
Продюсер: В.К. Бордер, Джоэль Сойзон, Ник Филлипс
Оператор: Дуглас Милсом
Композитор : Kevin Kliesch, Сейри Торджуссен
Художник: Кристиан Никулеску, Сербан Порупко, Оана Паунеску
Монтаж: Лиза Романив

В ролях:


Джейсон Скотт Ли (Father Uffizi), Стивен Биллингтон (Dracula II), Дайан Нил (Elizabeth Blaine), Джейсон Лондон (Luke), Рутгер Хауэр (Dracula III), Илинка Гойя (Marta), Джордж Григоре (Bruno), Рой Шайдер (Cardinal Siqueros), Том Кэйн (EBC Anchorman), Александра Уэскорт (Julia Hughes), Валентин Попеску (French Captain), Клаудиу Блеонц (Bogdan), Константин Кодреску (Old Man), Гэри Дж. Танниклифф (Tommy), Иоана Джингхина (Dracula's Bride)

Бюджет: $5 000 000

Мировая премьера: 12 июля 2005
Релиз на DVD: 14 ноября 2005, «West Video»
MPAA: - Лицам до 17 лет обязательно присутствие взрослого

Описание: Преследование Дракулы приводит охотников на вампиров — отца Уффици и Люка в Румынию. Где они обнаруживают настоящий ад, в котором развернулось ужасающее кровавое пиршество!



Качество: BDRip 1080p
Контейнер: MKV
Видео: AVC, 1920x1080 (16:9), 6256 kbps, 23.976 fps, 0.126 bpp
Аудио #1: русский /; AC3 /; 5.1 /; 48 kHz /; 448 kbps /; 16 bit; || DVO (SUPERBIT)
Аудио #2: русский /; AC3 /; 2.0 /; 48 kHz /; 192 kbps /; 16 bit; || MVO (West Video)
Субтитры #1: русские
Субтитры #2: английские
Навигация по главам: есть


АНОНСЫ ПОПУЛЯРНЫХ РАЗДАЧ

Код:

General
Unique ID                                : 239882884181030044606294404244029864571 (0xB477C35297DB6CBD96E1AE9409FC7A7B)
Complete name                            : E:\Мои рипы\Дракула 3.Наследие.2005.BDRip.1080p.DVO+MVO.mkv
Format                                   : Matroska
Format version                           : Version 4 / Version 2
File size                                : 4.37 GiB
Duration                                 : 1h 30mn
Overall bit rate                         : 6 895 Kbps
Encoded date                             : UTC 2017-08-13 04:28:57
Writing application                      : mkvmerge v6.8.0 ('Theme for Great Cities') 32bit built on Mar  2 2014 21:27:07
Writing library                          : libebml v1.3.0 + libmatroska v1.4.1

Video
ID                                       : 1
Format                                   : AVC
Format/Info                              : Advanced Video Codec
Format profile                           : High@L4.1
Format settings, CABAC                   : Yes
Format settings, ReFrames                : 4 frames
Codec ID                                 : V_MPEG4/ISO/AVC
Duration                                 : 1h 30mn
Bit rate                                 : 6 256 Kbps
Width                                    : 1 920 pixels
Height                                   : 1 080 pixels
Display aspect ratio                     : 16:9
Frame rate mode                          : Constant
Frame rate                               : 23.976 fps
Color space                              : YUV
Chroma subsampling                       : 4:2:0
Bit depth                                : 8 bits
Scan type                                : Progressive
Bits/(Pixel*Frame)                       : 0.126
Stream size                              : 3.88 GiB (89%)
Writing library                          : x264 core 146 r2538 121396c
Encoding settings                        : cabac=1 / ref=4 / deblock=1:-3:-3 / analyse=0x3:0x113 / me=umh / subme=11 / psy=1 / psy_rd=1.00:0.15 / mixed_ref=1 / me_range=48 / chroma_me=1 / trellis=2 / 8x8dct=1 / cqm=0 / deadzone=21,11 / fast_pskip=0 / chroma_qp_offset=-4 / threads=6 / lookahead_threads=1 / sliced_threads=0 / nr=0 / decimate=1 / interlaced=0 / bluray_compat=0 / constrained_intra=0 / bframes=8 / b_pyramid=2 / b_adapt=2 / b_bias=0 / direct=2 / weightb=1 / open_gop=0 / weightp=2 / keyint=250 / keyint_min=23 / scenecut=40 / intra_refresh=0 / rc_lookahead=50 / rc=2pass / mbtree=0 / bitrate=6256 / ratetol=1.0 / qcomp=0.60 / qpmin=0 / qpmax=69 / qpstep=4 / cplxblur=20.0 / qblur=0.5 / vbv_maxrate=14000 / vbv_bufsize=14000 / nal_hrd=none / filler=0 / ip_ratio=1.40 / pb_ratio=1.30 / aq=2:1.00
Language                                 : English
Default                                  : Yes
Forced                                   : No
Color primaries                          : Generic film
Matrix coefficients                      : YCgCo

Audio #1
ID                                       : 2
Format                                   : AC-3
Format/Info                              : Audio Coding 3
Mode extension                           : CM (complete main)
Format settings, Endianness              : Big
Codec ID                                 : A_AC3
Duration                                 : 1h 30mn
Bit rate mode                            : Constant
Bit rate                                 : 448 Kbps
Channel(s)                               : 6 channels
Channel positions                        : Front: L C R, Side: L R, LFE
Sampling rate                            : 48.0 KHz
Bit depth                                : 16 bits
Compression mode                         : Lossy
Stream size                              : 291 MiB (6%)
Title                                    : DVO, SUPERBIT
Language                                 : Russian
Default                                  : Yes
Forced                                   : No

Audio #2
ID                                       : 3
Format                                   : AC-3
Format/Info                              : Audio Coding 3
Mode extension                           : CM (complete main)
Format settings, Endianness              : Big
Codec ID                                 : A_AC3
Duration                                 : 1h 30mn
Bit rate mode                            : Constant
Bit rate                                 : 192 Kbps
Channel(s)                               : 2 channels
Channel positions                        : Front: L R
Sampling rate                            : 48.0 KHz
Bit depth                                : 16 bits
Compression mode                         : Lossy
Stream size                              : 125 MiB (3%)
Title                                    : MVO, West Video
Language                                 : Russian
Default                                  : No
Forced                                   : No

Text #1
ID                                       : 4
Format                                   : UTF-8
Codec ID                                 : S_TEXT/UTF8
Codec ID/Info                            : UTF-8 Plain Text
Language                                 : Russian
Default                                  : No
Forced                                   : No

Text #2
ID                                       : 5
Format                                   : UTF-8
Codec ID                                 : S_TEXT/UTF8
Codec ID/Info                            : UTF-8 Plain Text
Title                                    : SDH
Language                                 : English
Default                                  : No
Forced                                   : No

Menu
00:00:00.000                             : :Chapter 01
00:07:27.029                             : :Chapter 02
00:13:32.770                             : :Chapter 03
00:18:45.290                             : :Chapter 04
00:24:20.041                             : :Chapter 05
00:30:55.812                             : :Chapter 06
00:37:31.207                             : :Chapter 07
00:42:02.728                             : :Chapter 08
00:48:14.850                             : :Chapter 09
00:55:03.508                             : :Chapter 10
01:00:39.594                             : :Chapter 11
01:04:28.072                             : :Chapter 12
01:08:21.514                             : :Chapter 13
01:14:52.321                             : :Chapter 14
01:21:23.086                             : :Chapter 15
Раздаю ночью с 0.00 до 7.00 до 5 скачавших. На раздачи не возвращаюсь.



Скачать Дракула.3.Наследие.Dracula.III.Legacy.(Патрик.Люссье).[2005.ужасы.вампиры.BDRip].[1080p].[DVO.(SUPERBIT)].+.[MVO.(West.Video)].[R.G.Goldenshara].torrent без регистрации
Золото ЗОЛОТАЯ РАЗДАЧА! СКАЧАННОЕ НЕ ЗАСЧИТЫВАЕТСЯ! Золото
Дата: Зарегистрирован   [ Тип: внутренний ] Как тут cкачать?
MAGNET ссылка
MAGNET ссылка


Скачать .torrent

11 KB

Статус: проверено DHT
Скачан: торрент - 97 раз, раздача полностью - 72 раз
Размер: 4,37 GB
Оценка:  5 (Голосов: 1)
Поблагодарили: 4
Поделиться ссылкой на эту раздачу с друзьями:
В контактеFacebookОдноклассникиTwitterLivejournalМой МирLiveinternet
 

 
Показать сообщения:    


Вы не можете начинать темы
Вы не можете отвечать на сообщения
Вы не можете редактировать свои сообщения
Вы не можете удалять свои сообщения
Вы не можете голосовать в опросах
Вы не можете прикреплять файлы к сообщениям
Вы можете скачивать файлы