Loading...
Error

Скачать Мой парень - киллер / Mr. Right (Пако Кабесас) [2015, Боевик, мелодрама, комедия, BDRip][1080p] [DUB iTunes+AVO] [R.G. GoldenShara] торрент без регистрации

Статистика раздачи
Размер:  4,36 GB   |    Скачан:  101 раз
Сидов:  1  [  0 KB/s  ]  
 
 
 
Автор Сообщение

Magnetto83

[] 


Мой парень - киллер / Mr. Right


Год выпуска: 2015
Выпущено: США
Жанр: Боевик, мелодрама, комедия
Продолжительность: 01:35:29
Перевод 1: Профессиональный (полное дублирование) | iTunes |
Перевод 2: Авторский одноголосый | М.Чадов | Не цензурный |
Субтитры: Русские (форс, полные не цензурные!), английские (full, SDH)
Навигация по главам: Сохранены оригинальные главы как на Blu-ray

Слоган: «They make a killer couple»

Режиссер: Пако Кабесас

В ролях: Сэм Рокуэлл, Анна Кендрик, Тим Рот, Джеймс Рэнсон, Энсон Маунт, Майкл Эклунд, Кэти Нехра, Джейден Кейн, Дуглас М. Гриффин, Луис Да Силва мл., Елена Санчес

Описание: Марта застала своего парня за изменой и немного вышла из колеи. И тут она встречает, казалось бы, идеального мужчину. Но её идеал оказывается бывшим киллером, и его прошлое однажды вновь заявляет о себе, причем не самым приятным образом. И едва зародившиеся отношения начинают подвергаться серьёзным испытаниям.



Возраст: 18+ (зрителям, достигшим 18 лет. запрещено для детей)
Рейтинг MPAA: R (лицам до 17 лет обязательно присутствие взрослого)

Качество: BDRip 1080p
Формат: MKV
Видео кодек: H.264
Аудио кодек: AC3
Видео: 1920x804 (2.40:1), 5783 Кбит/с, 23.976 fps
Аудио 1,2: Русский Dolby Digital 5.1 (384 Кбит/с)


x264 [info]: frame I:1326 Avg QP:15.83 size:180338
x264 [info]: frame P:35342 Avg QP:18.32 size: 53261
x264 [info]: frame B:100699 Avg QP:20.18 size: 19937
x264 [info]: consecutive B-frames: 3.8% 5.9% 16.6% 20.5% 19.5% 27.8% 3.5% 1.1% 1.4%
x264 [total]: encoded 137367 frames, 1.41 fps, 5765.52 kb/s



General
Complete name : G:\Видео\Мои Рипы 1080p\Кино-Хиты 2015\Мой парень - киллер 2015 Dub+Avo Rus BDRip 1080p.mkv
Format : Matroska
Format version : Version 2
File size : 4.36 GiB
Duration : 1h 35mn
Overall bit rate : 6 535 Kbps
Movie name : Мой парень - киллер 2015 Dub+Avo Rus BDRip 1080p By R.G. GoldenShara
Encoded date : UTC 2017-08-10 11:51:25
Writing application : mkvmerge v5.2.0 ('I can't explain') built on Dec 18 2011 18:12:03
Writing library : libebml v1.2.3 + libmatroska v1.3.0

Video
ID : 1
Format : AVC
Format/Info : Advanced Video Codec
Format profile : High@L4.1
Format settings, CABAC : Yes
Format settings, ReFrames : 5 frames
Codec ID : V_MPEG4/ISO/AVC
Duration : 1h 35mn
Bit rate : 5 783 Kbps
Width : 1 920 pixels
Height : 804 pixels
Display aspect ratio : 2.40:1
Frame rate mode : Constant
Frame rate : 23.976 fps
Color space : YUV
Chroma subsampling : 4:2:0
Bit depth : 8 bits
Scan type : Progressive
Bits/(Pixel*Frame) : 0.156
Stream size : 3.76 GiB (86%)
Title : Мой парень - киллер 2015 BDRip 1080p By Magnetto 83
Writing library : x264 core 146 r2538 121396c
Encoding settings : cabac=1 / ref=5 / deblock=1:-3:-3 / analyse=0x3:0x113 / me=umh / subme=11 / psy=1 / psy_rd=1.00:0.00 / mixed_ref=1 / me_range=32 / chroma_me=1 / trellis=2 / 8x8dct=1 / cqm=0 / deadzone=21,11 / fast_pskip=0 / chroma_qp_offset=-2 / threads=3 / lookahead_threads=1 / sliced_threads=0 / nr=0 / decimate=1 / interlaced=0 / bluray_compat=0 / constrained_intra=0 / bframes=8 / b_pyramid=2 / b_adapt=2 / b_bias=0 / direct=3 / weightb=1 / open_gop=0 / weightp=2 / keyint=250 / keyint_min=23 / scenecut=40 / intra_refresh=0 / rc=2pass / mbtree=0 / bitrate=5783 / ratetol=1.0 / qcomp=0.60 / qpmin=0 / qpmax=69 / qpstep=4 / cplxblur=20.0 / qblur=0.5 / ip_ratio=1.40 / pb_ratio=1.30 / aq=2:1.00
Language : English
Default : Yes
Forced : No

Audio #1
ID : 2
Format : AC-3
Format/Info : Audio Coding 3
Mode extension : CM (complete main)
Format settings, Endianness : Big
Codec ID : A_AC3
Duration : 1h 35mn
Bit rate mode : Constant
Bit rate : 384 Kbps
Channel(s) : 6 channels
Channel positions : Front: L C R, Side: L R, LFE
Sampling rate : 48.0 KHz
Compression mode : Lossy
Stream size : 262 MiB (6%)
Title : DD 5.1 @ 384 kbps - Dub | iTunes |
Language : Russian
Default : Yes
Forced : No

Audio #2
ID : 3
Format : AC-3
Format/Info : Audio Coding 3
Mode extension : CM (complete main)
Format settings, Endianness : Big
Codec ID : A_AC3
Duration : 1h 35mn
Bit rate mode : Constant
Bit rate : 384 Kbps
Channel(s) : 6 channels
Channel positions : Front: L C R, Side: L R, LFE
Sampling rate : 48.0 KHz
Compression mode : Lossy
Stream size : 262 MiB (6%)
Title : DD 5.1 @ 384 kbps - AVO | Чадов | Не цензурный
Language : Russian
Default : No
Forced : No

Text #1
ID : 4
Format : UTF-8
Codec ID : S_TEXT/UTF8
Codec ID/Info : UTF-8 Plain Text
Title : Форс.
Language : Russian
Default : Yes
Forced : No

Text #2
ID : 5
Format : UTF-8
Codec ID : S_TEXT/UTF8
Codec ID/Info : UTF-8 Plain Text
Title : Полные
Language : Russian
Default : No
Forced : No

Text #3
ID : 6
Format : UTF-8
Codec ID : S_TEXT/UTF8
Codec ID/Info : UTF-8 Plain Text
Title : Full
Language : English
Default : No
Forced : No

Text #4
ID : 7
Format : UTF-8
Codec ID : S_TEXT/UTF8
Codec ID/Info : UTF-8 Plain Text
Title : SDH
Language : English
Default : No
Forced : No

Text #5
ID : 8
Format : UTF-8
Codec ID : S_TEXT/UTF8
Codec ID/Info : UTF-8 Plain Text
Title : SDH-Colored
Language : English
Default : No
Forced : No

Menu
00:00:00.000 : en:Chapter 01
00:04:37.860 : en:Chapter 02
00:08:25.713 : en:Chapter 03
00:11:40.741 : en:Chapter 04
00:15:48.906 : en:Chapter 05
00:18:59.638 : en:Chapter 06
00:23:35.247 : en:Chapter 07
00:27:29.481 : en:Chapter 08
00:33:51.446 : en:Chapter 09
00:39:11.766 : en:Chapter 10
00:43:59.970 : en:Chapter 11
00:46:09.349 : en:Chapter 12
00:51:56.530 : en:Chapter 13
00:56:39.604 : en:Chapter 14
00:59:27.814 : en:Chapter 15
01:04:24.694 : en:Chapter 16
01:10:16.629 : en:Chapter 17
01:16:40.762 : en:Chapter 18
01:22:23.813 : en:Chapter 19
01:28:02.819 : en:Chapter 20







Скачать Мой.парень.-.киллер.Mr.Right.(Пако.Кабесас).[2015.Боевик.мелодрама.комедия.BDRip][1080p].[DUB.iTunes+AVO].[R.G.GoldenShara].torrent без регистрации
Золото ЗОЛОТАЯ РАЗДАЧА! СКАЧАННОЕ НЕ ЗАСЧИТЫВАЕТСЯ! Золото
Дата: Зарегистрирован   [ Тип: внутренний ] Как тут cкачать?
MAGNET ссылка
MAGNET ссылка


Скачать .torrent

11 KB

Статус: проверено
Скачан: торрент - 101 раз, раздача полностью - 198 раз
Размер: 4,36 GB
Оценка:  5 (Голосов: 4)
Поблагодарили: 8
Поделиться ссылкой на эту раздачу с друзьями:
В контактеFacebookОдноклассникиTwitterLivejournalМой МирLiveinternet
 

 
Показать сообщения:    


Вы не можете начинать темы
Вы не можете отвечать на сообщения
Вы не можете редактировать свои сообщения
Вы не можете удалять свои сообщения
Вы не можете голосовать в опросах
Вы не можете прикреплять файлы к сообщениям
Вы можете скачивать файлы