Loading...
Error

Скачать Майкл / Michael (Нора Эфрон) [1996, фэнтези, драма, комедия, WEBRip] [1080p] [DVO (НТВ+)] + [AVO (Сербин)] [R.G. Goldenshara] торрент без регистрации

Статистика раздачи
Размер:  4,37 GB   |    Скачан:  59 раз
Сидов:  1  [  0 KB/s  ]  
 
 
 
Автор Сообщение

sobmaster

[] 

Майкл
Michael


Год выпуска: 1996

Страна: США
Выпущено: Turner Pictures (I), Alphaville Films, Krane Entertainment
Слоган: «Он ангел, но он не святой»
Жанр: фэнтези, драма, комедия

Продолжительность: 01:45:03
Перевод #1: Профессиональный (двухголосый, закадровый) (НТВ+)
Перевод #2: Авторский (одноголосый, закадровый) (Сербин)

Режиссер: Нора Эфрон
Сценарий: Питер Декстер, Джим Куинлен, Нора Эфрон
Продюсер: Шон Дэниэл, Нора Эфрон, Джеймс Джекс
Оператор: Джон Линдли
Композитор: Рэнди Ньюман
Художник: Дэн Дэвис, Джеймс Е. Точчи, Элизабет МакБрайд
Монтаж: Джеральдин Перони

В ролях:


Джон Траволта (Michael), Энди МакДауэлл (Dorothy Winters), Уильям Хёрт (Frank Quinlan), Боб Хоскинс (Vartan Malt), Роберт Пасторелли (Huey Driscoll), Джин Степлтон (Pansy Milbank), Тери Гарр (Judge Esther Newberg), Уоллес Лэнгэм (Bruce Craddock), Джои Лорен Эдамс (Anita), Карла Гуджино (Bride), Том Ходжис (Groom), Кэтрин Ллойд Барнс (Evie), Ричард Шифф (Italian Waiter), Кэлвин Триллин (Sheriff)

Сборы в США: $95 318 203
Сборы в мире: $119 718 203
Зрители: СЩА 20.8 млн , Великобритания 613.3 тыс. , Италия 452.6 тыс.

Мировая премьера: 25 декабря 1996
MPAA: - Детям до 13 лет просмотр не желателен

Описание: Его зовут Майкл. Он живет где-то в захолустье, в прогорающем мотеле посреди штата Айова. Он любитель выпивки, женщин и праздной жизни. Он просто ангел… Не верите? У него, как и положено, есть крылья.



Качество: WEBRip 1080p
Контейнер: MKV
Видео: AVC, 1912x1080 (16:9), 5512 kbps, 23.976 fps, 0.111 bpp
Аудио #1: русский /; AC3 /; 2.0 /; 48 kHz /; 192 kbps /; 16 bit; || DVO (НТВ+)
Аудио #2: русский /; AC3 /; 2.0 /; 48 kHz /; 256 kbps /; 16 bit; || AVO (Сербин)
Субтитры #1: русские (v.1)
Субтитры #2: русские (v.2)
Субтитры #3: английские


АНОНСЫ ПОПУЛЯРНЫХ РАЗДАЧ

Код:

General
Unique ID                                : 205471829282500613649633086687054916666 (0x9A946F53EC61FC8A86EE473B8B93EC3A)
Complete name                            : E:\Мои рипы\Майкл.1996.WEBRip.1080p.DVO+AVO.mkv
Format                                   : Matroska
Format version                           : Version 4 / Version 2
File size                                : 4.37 GiB
Duration                                 : 1h 45mn
Overall bit rate                         : 5 961 Kbps
Encoded date                             : UTC 2017-08-21 05:33:24
Writing application                      : mkvmerge v6.8.0 ('Theme for Great Cities') 32bit built on Mar  2 2014 21:27:07
Writing library                          : libebml v1.3.0 + libmatroska v1.4.1

Video
ID                                       : 1
Format                                   : AVC
Format/Info                              : Advanced Video Codec
Format profile                           : High@L4.1
Format settings, CABAC                   : Yes
Format settings, ReFrames                : 4 frames
Codec ID                                 : V_MPEG4/ISO/AVC
Duration                                 : 1h 45mn
Bit rate                                 : 5 512 Kbps
Width                                    : 1 912 pixels
Height                                   : 1 080 pixels
Display aspect ratio                     : 16:9
Frame rate mode                          : Constant
Frame rate                               : 23.976 fps
Color space                              : YUV
Chroma subsampling                       : 4:2:0
Bit depth                                : 8 bits
Scan type                                : Progressive
Bits/(Pixel*Frame)                       : 0.111
Stream size                              : 3.96 GiB (90%)
Writing library                          : x264 core 146 r2538 121396c
Encoding settings                        : cabac=1 / ref=4 / deblock=1:-3:-3 / analyse=0x3:0x113 / me=umh / subme=11 / psy=1 / psy_rd=1.00:0.15 / mixed_ref=1 / me_range=48 / chroma_me=1 / trellis=2 / 8x8dct=1 / cqm=0 / deadzone=21,11 / fast_pskip=0 / chroma_qp_offset=-4 / threads=6 / lookahead_threads=1 / sliced_threads=0 / nr=0 / decimate=1 / interlaced=0 / bluray_compat=0 / constrained_intra=0 / bframes=8 / b_pyramid=2 / b_adapt=2 / b_bias=0 / direct=2 / weightb=1 / open_gop=0 / weightp=2 / keyint=250 / keyint_min=23 / scenecut=40 / intra_refresh=0 / rc_lookahead=50 / rc=2pass / mbtree=0 / bitrate=5512 / ratetol=1.0 / qcomp=0.60 / qpmin=0 / qpmax=69 / qpstep=4 / cplxblur=20.0 / qblur=0.5 / vbv_maxrate=14000 / vbv_bufsize=14000 / nal_hrd=none / filler=0 / ip_ratio=1.40 / pb_ratio=1.30 / aq=2:1.00
Language                                 : English
Default                                  : Yes
Forced                                   : No
Color primaries                          : Generic film
Matrix coefficients                      : YCgCo

Audio #1
ID                                       : 2
Format                                   : AC-3
Format/Info                              : Audio Coding 3
Mode extension                           : CM (complete main)
Format settings, Endianness              : Big
Codec ID                                 : A_AC3
Duration                                 : 1h 45mn
Bit rate mode                            : Constant
Bit rate                                 : 192 Kbps
Channel(s)                               : 2 channels
Channel positions                        : Front: L R
Sampling rate                            : 48.0 KHz
Bit depth                                : 16 bits
Compression mode                         : Lossy
Delay relative to video                  : 24ms
Stream size                              : 144 MiB (3%)
Title                                    : DVO (НТВ+)
Language                                 : Russian
Default                                  : Yes
Forced                                   : No

Audio #2
ID                                       : 3
Format                                   : AC-3
Format/Info                              : Audio Coding 3
Format profile                           : Dolby Digital
Mode extension                           : CM (complete main)
Format settings, Endianness              : Big
Codec ID                                 : A_AC3
Duration                                 : 1h 45mn
Bit rate mode                            : Constant
Bit rate                                 : 256 Kbps
Channel(s)                               : 2 channels
Channel positions                        : Front: L R
Sampling rate                            : 48.0 KHz
Bit depth                                : 16 bits
Compression mode                         : Lossy
Delay relative to video                  : 24ms
Stream size                              : 192 MiB (4%)
Title                                    : АVO (Сербин)
Language                                 : Russian
Default                                  : No
Forced                                   : No

Text #1
ID                                       : 4
Format                                   : UTF-8
Codec ID                                 : S_TEXT/UTF8
Codec ID/Info                            : UTF-8 Plain Text
Title                                    : Sub (v.1)
Language                                 : Russian
Default                                  : No
Forced                                   : No

Text #2
ID                                       : 5
Format                                   : UTF-8
Codec ID                                 : S_TEXT/UTF8
Codec ID/Info                            : UTF-8 Plain Text
Title                                    : Sub (v.2)
Language                                 : Russian
Default                                  : No
Forced                                   : No

Text #3
ID                                       : 6
Format                                   : UTF-8
Codec ID                                 : S_TEXT/UTF8
Codec ID/Info                            : UTF-8 Plain Text
Title                                    : Sub
Language                                 : English
Default                                  : No
Forced                                   : No
Раздаю ночью с 0.00 до 7.00 до 5 скачавших. На раздачи не возвращаюсь.



Скачать Майкл.Michael.(Нора.Эфрон).[1996.фэнтези.драма.комедия.WEBRip].[1080p].[DVO.(НТВ+)].+.[AVO.(Сербин)].[R.G.Goldenshara].torrent без регистрации
Золото ЗОЛОТАЯ РАЗДАЧА! СКАЧАННОЕ НЕ ЗАСЧИТЫВАЕТСЯ! Золото
Дата: Зарегистрирован   [ Тип: внутренний ] Как тут cкачать?
MAGNET ссылка
MAGNET ссылка


Скачать .torrent

11 KB

Статус: проверено DHT
Скачан: торрент - 59 раз, раздача полностью - 91 раз
Размер: 4,37 GB
Оценка:  5 (Голосов: 4)
Поблагодарили: 4
Поделиться ссылкой на эту раздачу с друзьями:
В контактеFacebookОдноклассникиTwitterLivejournalМой МирLiveinternet
 

 
Показать сообщения:    


Вы не можете начинать темы
Вы не можете отвечать на сообщения
Вы не можете редактировать свои сообщения
Вы не можете удалять свои сообщения
Вы не можете голосовать в опросах
Вы не можете прикреплять файлы к сообщениям
Вы можете скачивать файлы