Loading...
Error

Скачать Чужой: Завет / Alien: Covenant (Ридли Скотт) [2017, Фантастика, боевик,, BDRip] [720p] [DUB] [R.G. GoldenShara] торрент без регистрации

Статистика раздачи
Размер:  2,9 GB   |    Скачан:  186 раз

Полного источника не было: 3 часа

 
 
 
Автор Сообщение

LORDKILL

[] 


Чужой: Завет / Alien: Covenant


Год выпуска: 2017
Выпущено: США, Великобритания, Австралия, Новая Зеландия, Канада
Жанр: Фантастика, боевик,
Продолжительность: 02:02:03
Перевод: Профессиональный (полное дублирование)
Субтитры: русские (форс., полные), английские

Режиссер: Ридли Скотт

В ролях: Майкл Фассбендер, Кэтрин Уотерстон, Билли Крудап, Дэнни МакБрайд, Демиан Бишир, Кармен Эджого, Джусси Смоллетт, Эми Саймец

Описание: Во время обследования удалённой планеты, расположенной на другой стороне галактики, экипаж колониального корабля «Завет» обнаруживает, что то, что они изначально приняли за неизведанный рай, на самом деле — тёмный и опасный мир. Его единственный житель — синтетический андроид Дэвид, оставшийся в живых после обреченной экспедиционной миссии «Прометей»...







Качество: BDRip 720p
Формат: MKV
Видео кодек: H.264
Аудио кодек: AC3
Видео: 1280x536 (2.40:1), 2956 kbps, 23.976 fps
Аудио: Русский (AC-3, 6ch, 448 kbps)

x264 [info]: frame I:1555 Avg QP:16.73 size:114050
x264 [info]: frame P:42750 Avg QP:18.30 size: 36044
x264 [info]: frame B:131279 Avg QP:21.50 size: 7526
x264 [info]: consecutive B-frames: 3.3% 4.0% 18.4% 14.5% 16.8% 32.1% 7.8% 1.6% 1.4%
x264 [total]: encoded 175584 frames, 5.06 fps, 2956.32 kb/s

General
Unique ID : 231279889521766842978547269037559809876 (0xADFEE2F01EF3A9FEB98AEE38209A8754)
Complete name : F:\ФИЛЬМЫ\ЧУЖИЕ\Чужой.Завет.2017.x264.BDRip.720p.DUB.mkv
Format : Matroska
Format version : Version 4 / Version 2
File size : 2.90 GiB
Duration : 2 h 2 min
Overall bit rate : 3 407 kb/s
Movie name : Чужой: Завет / Alien: Covenant (2017) - #LORDKILL#
Encoded date : UTC 2017-09-01 07:49:19
Writing application : mkvmerge v9.5.0 ('Quiet Fire') 64bit
Writing library : libebml v1.3.4 + libmatroska v1.4.5

Video
ID : 1
Format : AVC
Format/Info : Advanced Video Codec
Format profile : High@L4.1
Format settings, CABAC : Yes
Format settings, ReFrames : 11 frames
Codec ID : V_MPEG4/ISO/AVC
Duration : 2 h 2 min
Bit rate : 2 956 kb/s
Width : 1 280 pixels
Height : 536 pixels
Display aspect ratio : 2.40:1
Frame rate mode : Constant
Frame rate : 23.976 (24000/1001) FPS
Color space : YUV
Chroma subsampling : 4:2:0
Bit depth : 8 bits
Scan type : Progressive
Bits/(Pixel*Frame) : 0.180
Stream size : 2.52 GiB (87%)
Writing library : x264 core 146 r2538 121396c
Encoding settings : cabac=1 / ref=11 / deblock=1:-3:-3 / analyse=0x3:0x113 / me=umh / subme=11 / psy=1 / psy_rd=1.00:0.10 / mixed_ref=1 / me_range=64 / chroma_me=1 / trellis=2 / 8x8dct=1 / cqm=0 / deadzone=21,11 / fast_pskip=0 / chroma_qp_offset=-3 / threads=12 / lookahead_threads=2 / sliced_threads=0 / nr=0 / decimate=1 / interlaced=0 / bluray_compat=0 / constrained_intra=0 / bframes=8 / b_pyramid=2 / b_adapt=2 / b_bias=0 / direct=1 / weightb=1 / open_gop=0 / weightp=2 / keyint=240 / keyint_min=23 / scenecut=40 / intra_refresh=0 / rc=crf / mbtree=0 / crf=19.5 / qcomp=0.60 / qpmin=0 / qpmax=69 / qpstep=4 / ip_ratio=1.40 / pb_ratio=1.30 / aq=1:1.00
Default : Yes
Forced : No

Audio
ID : 2
Format : AC-3
Format/Info : Audio Coding 3
Mode extension : CM (complete main)
Format settings, Endianness : Big
Codec ID : A_AC3
Duration : 2 h 2 min
Bit rate mode : Constant
Bit rate : 448 kb/s
Channel(s) : 6 channels
Channel positions : Front: L C R, Side: L R, LFE
Sampling rate : 48.0 kHz
Frame rate : 31.250 FPS (1536 spf)
Bit depth : 16 bits
Compression mode : Lossy
Stream size : 391 MiB (13%)
Title : Дубляж
Language : Russian
Default : Yes
Forced : No

Text #1
ID : 3
Format : UTF-8
Codec ID : S_TEXT/UTF8
Codec ID/Info : UTF-8 Plain Text
Duration : 1 h 55 min
Bit rate : 0 b/s
Count of elements : 8
Stream size : 413 Bytes (0%)
Title : Forced [iTunes]
Language : Russian
Default : Yes
Forced : No

Text #2
ID : 4
Format : UTF-8
Codec ID : S_TEXT/UTF8
Codec ID/Info : UTF-8 Plain Text
Duration : 2 h 0 min
Bit rate : 67 b/s
Count of elements : 1331
Stream size : 59.3 KiB (0%)
Title : Full [iTunes]
Language : Russian
Default : No
Forced : No

Text #3
ID : 5
Format : UTF-8
Codec ID : S_TEXT/UTF8
Codec ID/Info : UTF-8 Plain Text
Duration : 1 h 55 min
Bit rate : 69 b/s
Count of elements : 862
Stream size : 58.5 KiB (0%)
Title : Full [Doctor Joker]
Language : Russian
Default : No
Forced : No

Text #4
ID : 6
Format : UTF-8
Codec ID : S_TEXT/UTF8
Codec ID/Info : UTF-8 Plain Text
Duration : 1 h 54 min
Bit rate : 43 b/s
Count of elements : 1451
Stream size : 36.6 KiB (0%)
Title : Full
Language : English
Default : No
Forced : No

Text #5
ID : 7
Format : UTF-8
Codec ID : S_TEXT/UTF8
Codec ID/Info : UTF-8 Plain Text
Duration : 1 h 54 min
Bit rate : 52 b/s
Count of elements : 1709
Stream size : 44.2 KiB (0%)
Title : SDH
Language : English
Default : No
Forced : No

Text #6
ID : 8
Format : UTF-8
Codec ID : S_TEXT/UTF8
Codec ID/Info : UTF-8 Plain Text
Duration : 1 h 54 min
Bit rate : 81 b/s
Count of elements : 1709
Stream size : 68.3 KiB (0%)
Title : SDH Colored
Language : English
Default : No
Forced : No

Menu
00:00:00.000 : en:00:00:00.000
00:04:47.662 : en:00:04:47.662
00:13:07.495 : en:00:13:07.495
00:18:11.924 : en:00:18:11.924
00:22:46.448 : en:00:22:46.448
00:27:51.169 : en:00:27:51.169
00:33:12.908 : en:00:33:12.908
00:37:18.736 : en:00:37:18.736
00:42:19.912 : en:00:42:19.912
00:47:43.694 : en:00:47:43.694
00:52:04.371 : en:00:52:04.371
00:55:56.270 : en:00:55:56.270
01:00:17.447 : en:01:00:17.447
01:06:20.643 : en:01:06:20.643
01:11:25.031 : en:01:11:25.031
01:16:35.883 : en:01:16:35.883
01:21:10.032 : en:01:21:10.032
01:28:18.793 : en:01:28:18.793
01:31:21.559 : en:01:31:21.559
01:34:52.437 : en:01:34:52.437
01:39:23.666 : en:01:39:23.666
01:43:35.876 : en:01:43:35.876
01:50:49.309 : en:01:50:49.309
01:55:27.754 : en:01:55:27.754





Скачать Чужой.Завет.Alien.Covenant.(Ридли.Скотт).[2017.Фантастика.боевик.BDRip].[720p].[DUB].[R.G.GoldenShara].torrent без регистрации
Золото ЗОЛОТАЯ РАЗДАЧА! СКАЧАННОЕ НЕ ЗАСЧИТЫВАЕТСЯ! Золото
Дата: Зарегистрирован   [ Тип: внутренний ] Как тут cкачать?
MAGNET ссылка
MAGNET ссылка


Скачать .torrent

15 KB

Статус: проверено
Скачан: торрент - 186 раз, раздача полностью - 184 раз
Размер: 2,9 GB
Оценка:  4,7 (Голосов: 7)
Поблагодарили: 14
Поделиться ссылкой на эту раздачу с друзьями:
В контактеFacebookОдноклассникиTwitterLivejournalМой МирLiveinternet
 

 

asd-anane

[] 

Юхуууууу bp bp bp В понедельник пиво с Чужим az СПАСИБО ay
 
Показать сообщения:    


Вы не можете начинать темы
Вы не можете отвечать на сообщения
Вы не можете редактировать свои сообщения
Вы не можете удалять свои сообщения
Вы не можете голосовать в опросах
Вы не можете прикреплять файлы к сообщениям
Вы можете скачивать файлы