Loading...
Error

Скачать Демон внутри / The Autopsy of Jane Doe (Андре Овредал) [2016, ужасы, BDRip] [720p] [MVOх2] [R.G. GoldenShara] торрент без регистрации

Статистика раздачи
Размер:  1,35 GB   |    Скачан:  65 раз

Полного источника не было: 24 дня

 
 
 
Автор Сообщение

LORDKILL

[] 


Демон внутри / The Autopsy of Jane Doe


Год выпуска: 2016
Выпущено: Великобритания
Жанр: ужасы
Продолжительность: 01:26:22
Перевод: Профессиональный (многоголосый) - iTunes + AlexFilm
Субтитры: Русские, английские

Режиссер: Андре Овредал

В ролях: Эмиль Хирш, Брайан Кокс, Офелия Ловибонд, Майкл МакЭлхаттон, Олуэн Катрин Келли, Паркер Сойерс, Джейн Перри, Ив О’Хара

Описание: Патологоанатомы маленького городка получают тело жертвы таинственного убийства — красивой и молодой девушки без видимой причины смерти. Они пытаются выяснить, кто она и как умерла, обнаруживая все более причудливые подсказки, которые ведут к тайнам её жизни и смерти.






Качество: BDRip 720p
Формат: MKV
Видео кодек: H.264
Аудио кодек: AC3
Видео: 1280x536 (2.40:1), 1470 kbps, 23.976 fps
Аудио: Русский (AC-3, 6ch, 384 kbps) - iTunes + AlexFilm

x264 [info]: frame I:1336 Avg QP:15.18 size: 72000
x264 [info]: frame P:25118 Avg QP:16.54 size: 18806
x264 [info]: frame B:97797 Avg QP:20.16 size: 3921
x264 [info]: consecutive B-frames: 2.0% 1.8% 5.4% 10.3% 27.0% 43.8% 7.1% 1.8% 0.9%
x264 [total]: encoded 124251 frames, 9.75 fps, 1469.63 kb/s
General
Unique ID : 171648270939160383293484371799585582571 (0x812241264872BEAAB0EFFE379C57EDEB)
Complete name : F:\ФИЛЬМЫ\Демон.внутри.2016.x264.BDRip.720p.MVOх2.mkv
Format : Matroska
Format version : Version 4 / Version 2
File size : 1.35 GiB
Duration : 1 h 26 min
Overall bit rate : 2 240 kb/s
Movie name : Демон внутри / The Autopsy of Jane Doe (2016) - #LORDKILL#
Encoded date : UTC 2017-09-05 15:25:39
Writing application : mkvmerge v9.5.0 ('Quiet Fire') 64bit
Writing library : libebml v1.3.4 + libmatroska v1.4.5
Attachments : 720.log

Video
ID : 1
Format : AVC
Format/Info : Advanced Video Codec
Format profile : High@L4.1
Format settings, CABAC : Yes
Format settings, ReFrames : 11 frames
Codec ID : V_MPEG4/ISO/AVC
Duration : 1 h 26 min
Bit rate : 1 470 kb/s
Width : 1 280 pixels
Height : 536 pixels
Display aspect ratio : 2.40:1
Frame rate mode : Constant
Frame rate : 23.976 (24000/1001) FPS
Color space : YUV
Chroma subsampling : 4:2:0
Bit depth : 8 bits
Scan type : Progressive
Bits/(Pixel*Frame) : 0.089
Stream size : 908 MiB (66%)
Writing library : x264 core 146 r2538 121396c
Encoding settings : cabac=1 / ref=11 / deblock=1:-2:-2 / analyse=0x3:0x113 / me=umh / subme=11 / psy=1 / psy_rd=1.00:0.10 / mixed_ref=1 / me_range=32 / chroma_me=1 / trellis=2 / 8x8dct=1 / cqm=0 / deadzone=21,11 / fast_pskip=0 / chroma_qp_offset=-3 / threads=12 / lookahead_threads=2 / sliced_threads=0 / nr=0 / decimate=1 / interlaced=0 / bluray_compat=0 / constrained_intra=0 / bframes=8 / b_pyramid=2 / b_adapt=2 / b_bias=0 / direct=1 / weightb=1 / open_gop=0 / weightp=2 / keyint=240 / keyint_min=23 / scenecut=40 / intra_refresh=0 / rc=crf / mbtree=0 / crf=19.5 / qcomp=0.60 / qpmin=0 / qpmax=69 / qpstep=4 / ip_ratio=1.40 / pb_ratio=1.30 / aq=1:1.00
Language : English
Default : Yes
Forced : No

Audio #1
ID : 2
Format : AC-3
Format/Info : Audio Coding 3
Mode extension : CM (complete main)
Format settings, Endianness : Big
Codec ID : A_AC3
Duration : 1 h 26 min
Bit rate mode : Constant
Bit rate : 384 kb/s
Channel(s) : 6 channels
Channel positions : Front: L C R, Side: L R, LFE
Sampling rate : 48.0 kHz
Frame rate : 31.250 FPS (1536 spf)
Bit depth : 16 bits
Compression mode : Lossy
Stream size : 237 MiB (17%)
Title : MVO (iTunes)
Language : Russian
Default : No
Forced : No

Audio #2
ID : 3
Format : AC-3
Format/Info : Audio Coding 3
Mode extension : CM (complete main)
Format settings, Endianness : Big
Codec ID : A_AC3
Duration : 1 h 26 min
Bit rate mode : Constant
Bit rate : 384 kb/s
Channel(s) : 6 channels
Channel positions : Front: L C R, Side: L R, LFE
Sampling rate : 48.0 kHz
Frame rate : 31.250 FPS (1536 spf)
Bit depth : 16 bits
Compression mode : Lossy
Stream size : 237 MiB (17%)
Title : MVO (AlexFilm)
Language : Russian
Default : Yes
Forced : No

Text #1
ID : 4
Format : UTF-8
Codec ID : S_TEXT/UTF8
Codec ID/Info : UTF-8 Plain Text
Duration : 1 h 21 min
Bit rate : 45 b/s
Count of elements : 704
Stream size : 27.3 KiB (0%)
Language : Russian
Default : Yes
Forced : No

Text #2
ID : 5
Format : UTF-8
Codec ID : S_TEXT/UTF8
Codec ID/Info : UTF-8 Plain Text
Duration : 1 h 18 min
Bit rate : 34 b/s
Count of elements : 706
Stream size : 20.1 KiB (0%)
Language : English
Default : No
Forced : No

Menu
00:00:00.000 : :1
00:10:03.603 : :2
00:20:03.494 : :3
00:30:30.203 : :4
00:40:25.923 : :5
00:50:23.562 : :6
01:00:38.343 : :7
01:09:57.526 : :8
01:21:45.025 : :9





Скачать Демон.внутри.The.Autopsy.of.Jane.Doe.(Андре.Овредал).[2016.ужасы.BDRip].[720p].[MVOх2].[R.G.GoldenShara].torrent без регистрации
Золото ЗОЛОТАЯ РАЗДАЧА! СКАЧАННОЕ НЕ ЗАСЧИТЫВАЕТСЯ! Золото
Дата: Зарегистрирован   [ Тип: внутренний ] Как тут cкачать?
MAGNET ссылка
MAGNET ссылка


Скачать .torrent

14 KB

Статус: проверено
Скачан: торрент - 65 раз, раздача полностью - 29 раз
Размер: 1,35 GB
Оценка:  5 (Голосов: 3)
Поблагодарили: 6
Поделиться ссылкой на эту раздачу с друзьями:
В контактеFacebookОдноклассникиTwitterLivejournalМой МирLiveinternet
 

 

LORDKILL

[] 

ТОРРЕНТ ОБНОВЛЕН! Добавлена дорожка iTunes
 

asd-anane

[] 

Спасибо большое. Фильм хорош ay
 
Показать сообщения:    


Вы не можете начинать темы
Вы не можете отвечать на сообщения
Вы не можете редактировать свои сообщения
Вы не можете удалять свои сообщения
Вы не можете голосовать в опросах
Вы не можете прикреплять файлы к сообщениям
Вы можете скачивать файлы