Loading...
Error

Скачать Город Зеро (Карен Шахназаров) [1988, драма, BDRip] [1080p] торрент без регистрации

Статистика раздачи
Размер:  7,76 GB   |    Скачан:  39 раз

Полного источника не было: 24 минуты

 
 
 
Автор Сообщение

Marsianka

[] 

Информация о фильме
Название: Город Зеро
Оригинальное название: Город Зеро
Год выхода: 1989
Жанр: драма
Режиссер: Карен Шахназаров
В ролях: Леонид Филатов, Олег Басилашвили, Владимир Меньшов, Армен Джигарханян, Евгений Евстигнеев, Алексей Жарков, Петр Щербаков, Юрий Шерстнев, Елена Аржаник, Татьяна Хвостикова

О фильме:
Отправившись в командировку, герой фильма неожиданно попадет в фантастический город. Он очень похож на наш мир, только скрытая абсурдность повседневной жизни здесь стала явной. Город Зеро открывает герою одну тайну за другой, и вернуться в привычную реальность становится все трудней...



Выпущено: СССР
Студия: Мосфильм
Продолжительность: 01:41:44
Перевод: Не требуется

Файл
Кодек: x264
Качество: BDRip (источник: Blu-ray Disc)
Видео: 1488x1080 (1,38:1), 23.976 fps, 10,5 Mbps
Аудио #1: AC-3, 6 ch, 448 kbps (Rus)
Субтитры: Нет
Общее
Уникальный идентификатор : 210920184886091721965496254239709054822 (0x9EADBFFFA873334681077CC933B7C766)
Полное имя : F:Город.Зеро.1989.BDRip.1080p.Rus.mkv
Формат : Matroska
Версия формата : Version 2
Размер файла : 7,76 Гбайт
Продолжительность : 1 ч. 42 м.
Общий поток : 10,9 Мбит/сек
Название фильма : Город Зеро (1989)
Дата кодирования : UTC 2013-12-14 14:40:11
Программа кодирования : mkvmerge v5.8.0 ('No Sleep / Pillow') built on Sep 2 2012 15:37:04
Библиотека кодирования : libebml v1.2.3 + libmatroska v1.3.0
Attachment : Yes

Видео
Идентификатор : 1
Формат : AVC
Формат/Информация : Advanced Video Codec
Профиль формата : High@L4.1
Параметр CABAC формата : Да
Параметр ReFrames формата : 5 кадров
Идентификатор кодека : V_MPEG4/ISO/AVC
Продолжительность : 1 ч. 42 м.
Битрейт : 10,5 Мбит/сек
Ширина : 1488 пикселей
Высота : 1080 пикселей
Соотношение сторон : 1,378
Режим частоты кадров : Постоянный
Частота кадров : 23,976 кадра/сек
Цветовое пространство : YUV
Субдискретизация насыщенности : 4:2:0
Битовая глубина : 8 бит
Тип развёртки : Прогрессивная
Бит/(Пиксели*Кадры) : 0.272
Размер потока : 7,28 Гбайт (94%)
Заголовок : Release by N1NT3NDO
Библиотека кодирования : x264 core 140 r2377 1ca7bb9
Настройки программы : cabac=1 / ref=5 / deblock=1:-3:-3 / analyse=0x3:0x133 / me=umh / subme=11 / psy=1 / psy_rd=1.00:0.00 / mixed_ref=1 / me_range=32 / chroma_me=1 / trellis=2 / 8x8dct=1 / cqm=0 / deadzone=21,11 / fast_pskip=0 / chroma_qp_offset=-2 / threads=12 / lookahead_threads=1 / sliced_threads=0 / nr=0 / decimate=0 / interlaced=0 / bluray_compat=0 / constrained_intra=0 / bframes=6 / b_pyramid=2 / b_adapt=2 / b_bias=0 / direct=3 / weightb=1 / open_gop=0 / weightp=2 / keyint=240 / keyint_min=23 / scenecut=40 / intra_refresh=0 / rc=2pass / mbtree=0 / bitrate=10468 / ratetol=1.0 / qcomp=0.60 / qpmin=0 / qpmax=69 / qpstep=4 / cplxblur=20.0 / qblur=0.5 / ip_ratio=1.40 / pb_ratio=1.30 / aq=1:1.00
Язык : English
Default : Да
Forced : Нет

Аудио
Идентификатор : 2
Формат : AC-3
Формат/Информация : Audio Coding 3
Расширение режима : CM (complete main)
Параметр Endianness формата : Big
Идентификатор кодека : A_AC3
Продолжительность : 1 ч. 42 м.
Вид битрейта : Постоянный
Битрейт : 448 Кбит/сек
Каналы : 6 каналов
Расположение каналов : Front: L C R, Side: L R, LFE
Частота : 48,0 КГц
Битовая глубина : 16 бит
Метод сжатия : С потерями
Размер потока : 328 Мбайт (4%)
Заголовок : Rus
Язык : Russian
Default : Да
Forced : Нет

Меню
00:00:00.000 : :Chapter 01
00:05:01.843 : :Chapter 02
00:14:06.512 : :Chapter 03
00:21:58.358 : :Chapter 04
00:26:30.839 : :Chapter 05
00:34:01.372 : :Chapter 06
00:44:58.320 : :Chapter 07
00:54:19.047 : :Chapter 08
01:04:10.555 : :Chapter 09
01:11:52.308 : :Chapter 10
01:19:48.909 : :Chapter 11
01:33:31.230 : :Chapter 12
x264 [info]: frame I:772 Avg QP:12.92 size:196228
x264 [info]: frame P:27806 Avg QP:15.11 size:111593
x264 [info]: frame B:117772 Avg QP:17.10 size: 40143
x264 [info]: consecutive B-frames: 0.9% 1.1% 4.6% 8.6% 13.3% 64.8% 6.6%



Скачать Город.Зеро.(Карен.Шахназаров).[1988.драма.BDRip].[1080p].torrent без регистрации
Золото ЗОЛОТАЯ РАЗДАЧА! СКАЧАННОЕ НЕ ЗАСЧИТЫВАЕТСЯ! Золото
Дата: Зарегистрирован   [ Тип: внутренний ] Как тут cкачать?
MAGNET ссылка
MAGNET ссылка


Скачать .torrent

40 KB

Статус: проверено DHT
Скачан: торрент - 39 раз, раздача полностью - 5 раз
Размер: 7,76 GB
Оценка:  - (Голосов: 0)
Поблагодарили: 0
Поделиться ссылкой на эту раздачу с друзьями:
В контактеFacebookОдноклассникиTwitterLivejournalМой МирLiveinternet
 

 
Показать сообщения:    


Вы не можете начинать темы
Вы не можете отвечать на сообщения
Вы не можете редактировать свои сообщения
Вы не можете удалять свои сообщения
Вы не можете голосовать в опросах
Вы не можете прикреплять файлы к сообщениям
Вы можете скачивать файлы