Loading...
Error

Скачать Виктория / Victoria (Сезон 02) (Том Вон, Оливер Блэкбёрн, Сандра Голдбахер) [2017, драма, история, биография, WEB-DL] [1080p] [MVO] (NewStudio) торрент без регистрации

Статистика раздачи
Размер:  15,97 GB   |    Скачан:  21 раз
Сидов:  1  [  0 KB/s  ]  

 
 
 
Автор Сообщение

leon030982

[] 

Виктория / Victoria



Год выпуска: 2017
Страна: Великобритания
Жанр: драма, история, биография
Продолжительность: 1х ~ 00:49:55
Перевод: Профессиональный (многоголосый) *NewStudio*

Режиссёр: Том Вон, Оливер Блэкбёрн, Сандра Голдбахер, Лиза Джеймс Ларсен

В ролях: Дженна Коулман,Том Хьюз, Дайана Ригг, Томми Найт, Руфус Сьюэлл и другие

Описание: Во втором сезоне молодая королева столкнётся с актуальной в современное время дилеммой: как совместить свою работу с детьми и мужем.



Качество: WEB-DL 1080p
Формат: MKV
Видео: AVC, 1920x1080, 25fps, ~7367 Kbps
Аудио: AC-3, 48.0 kHz, 6 channels, 192 kb/s - MVO
Аудио: E-AC-3, 48.0 kHz, 6 channels, 224 kb/s - ENG
Субтитры: нет

Торент обновлен! добавлена 6-8-я серия
Внимание! Раздача ведётся путём добавления новых серий - по мере выхода серий, раздача будет обновляться, и при каждом добавлении создаваться новый торрент.
Чтобы начать докачку новой серии, пользователям необходимо:
1. Остановить скачивание.
2. Удалить старый торрент у себя из клиента (старые серии удалять не надо).
3. Скачать новый торрент и запустить его у себя в клиенте вместо старого, при этом указать клиенту путь в старую папку куда и должно происходить скачивание новых серий.

Ваш клиент при этом должен произвести хеширование (проверку) старой папки (если не производит сам - помогите ему сделать это), и будет докачивать только те серии которых у вас ещё нет. Старые серии при этом не удаляются, а продолжают раздаваться. Eсли вы уже удалили старые серии, то предотвратить повторную закачку старых серий можно отжав галочку в соответствующих местах при запуске нового торрента. По возможности, желательно не удалять старые серии как можно дольше, чтобы релизер не столько продолжал раздавать старые серии, сколько мог сконцентрироваться на новых.
General
Unique ID : 207553665176358258941552631701260141024 (0x9C2561C3165E088E9C08159C430F01E0)
Complete name : E:\Victoria.s02e01.WEBDL.1080p.NewStudio.TV.mkv
Format : Matroska
Format version : Version 4 / Version 2
File size : 2.71 GiB
Duration : 49mn 55s
Overall bit rate mode : Variable
Overall bit rate : 7 786 Kbps
Encoded date : UTC 2017-09-10 16:48:31
Writing application : mkvmerge v8.2.0 ('World of Adventure') 32bit
Writing library : libebml v1.3.1 + libmatroska v1.4.2

Video
ID : 1
Format : AVC
Format/Info : Advanced Video Codec
Format profile : High@L4
Format settings, CABAC : Yes
Format settings, ReFrames : 4 frames
Codec ID : V_MPEG4/ISO/AVC
Duration : 49mn 55s
Bit rate mode : Variable
Bit rate : 7 215 Kbps
Maximum bit rate : 15.0 Mbps
Width : 1 920 pixels
Height : 1 080 pixels
Display aspect ratio : 16:9
Frame rate mode : Constant
Frame rate : 25.000 fps
Color space : YUV
Chroma subsampling : 4:2:0
Bit depth : 8 bits
Scan type : Progressive
Bits/(Pixel*Frame) : 0.139
Stream size : 2.52 GiB (93%)
Default : Yes
Forced : No
Color range : Limited
Color primaries : BT.709
Transfer characteristics : BT.709
Matrix coefficients : BT.709

Audio #1
ID : 2
Format : AC-3
Format/Info : Audio Coding 3
Mode extension : CM (complete main)
Format settings, Endianness : Big
Codec ID : A_AC3
Duration : 49mn 55s
Bit rate mode : Constant
Bit rate : 192 Kbps
Channel(s) : 2 channels
Channel positions : Front: L R
Sampling rate : 48.0 KHz
Compression mode : Lossy
Stream size : 68.6 MiB (2%)
Title : NewStudio
Language : Russian
Default : Yes
Forced : No

Audio #2
ID : 3
Format : E-AC-3
Format/Info : Audio Coding 3
Format settings, Endianness : Big
Codec ID : A_EAC3
Duration : 49mn 55s
Bit rate mode : Constant
Bit rate : 224 Kbps
Channel(s) : 2 channels
Channel positions : Front: L R
Sampling rate : 48.0 KHz
Compression mode : Lossy
Stream size : 80.0 MiB (3%)
Language : English
Default : No
Forced : No




Скачать Виктория.Victoria.(Сезон.02).(Том.Вон.Оливер.Блэкбёрн.Сандра.Голдбахер).[2017.драма.история.биография.WEB-DL].[1080p].[MVO].(NewStudio).torrent без регистрации
Золото ЗОЛОТАЯ РАЗДАЧА! СКАЧАННОЕ НЕ ЗАСЧИТЫВАЕТСЯ! Золото
Дата: Зарегистрирован   [ Тип: внутренний ] Как тут cкачать?
MAGNET ссылка
MAGNET ссылка


Скачать .torrent

81 KB

Статус: проверено DHT
Скачан: торрент - 21 раз, раздача полностью - 0 раз
Размер: 15,97 GB
Оценка:  - (Голосов: 0)
Поблагодарили: 1
Поделиться ссылкой на эту раздачу с друзьями:
В контактеFacebookОдноклассникиTwitterLivejournalМой МирLiveinternet
 

 

Ramnala

[] 

Спасибо!
Когда 5 серия?
 

leon030982

[] 

Ramnala писал(а):

Спасибо!
Когда 5 серия?
серия только вчера вышла, полагаю что сегодня-завтра с переводом будет
 

Ramnala

[] 

leon030982 писал(а):

Ramnala писал(а):

Спасибо!
Когда 5 серия?
серия только вчера вышла, полагаю что сегодня-завтра с переводом будет
Спасибо! Жду.
 
Показать сообщения:    


Вы не можете начинать темы
Вы не можете отвечать на сообщения
Вы не можете редактировать свои сообщения
Вы не можете удалять свои сообщения
Вы не можете голосовать в опросах
Вы не можете прикреплять файлы к сообщениям
Вы можете скачивать файлы