Loading...
Error

Скачать Грейсфилд / The Gracefield Incident (Матье Рэтхи) [2017, Фантастика, ужасы, триллер, BDRip] [720p] [DUB] [iTunes] [R.G. GoldenShara] торрент без регистрации

Статистика раздачи
Размер:  2,45 GB   |    Скачан:  114 раз

Полного источника не было: 16 дней

 
 
 
Автор Сообщение

LORDKILL

[] 


Грейсфилд / The Gracefield Incident


Год выпуска: 2017
Выпущено: США, Канада
Жанр: Фантастика, ужасы, триллер
Продолжительность: 01:25:03
Перевод: Профессиональный (полное дублирование)

Режиссер: Матье Рэтхи

В ролях: Лоуренс Дофинаис, Джульетт Госселин, Лори Грэхэм, Кимберли Лаферрье, Алекс С. Нати, Матье Рэтхи, Виктор Трелье

Описание: В центре сюжета находится разработчик видеоигр Мэтт Донован, который вместе с пятью своими друзьями решает отправиться в комфортабельный загородный дом, чтобы как следует отдохнуть. Запечатлеть безудержное веселье Мэтту помогает видеокамера, встроенная в его глазном протезе. Неожиданно в процессе отрыва ребята слышат громкий звук, раздавшийся в лесу, замечают необычное свечение в ночном небе и нечто, упавшее с прямо неподалеку от их домика. Отправившись на поиски объекта, от которого исходит ужасный шум, друзья обнаруживают в лесу упавший метеорит. Не в силах сдержать любопытства, молодые люди начинают осматривать и ощупывать метеорит, не подозревая, что Землю прибыли агрессивно настроенные инопланетяне, а их отдых в итоге превратится в отчаянную борьбу за выживание.







Качество: BDRip 720p
Формат: MKV
Видео кодек: H.264
Аудио кодек: AC3
Видео: 1280x544 (2.35:1), 3730 kbps, 23.976 fps
Аудио: Русский (AC-3, 6ch, 384 kbps)


General
Unique ID : 176052091696351569029781400576935187531 (0x84726646BF05E351A0CC11884E75D44B)
Complete name : E:\ФИЛЬМЫ\Грейсфилд.2014.x264.BDRip.720p.DUB.mkv
Format : Matroska
Format version : Version 4 / Version 2
File size : 2.45 GiB
Duration : 1 h 25 min
Overall bit rate : 4 116 kb/s
Movie name : Грейсфилд / The Gracefield Incident (2017) - #LORDKILL#
Encoded date : UTC 2017-09-12 18:17:05
Writing application : mkvmerge v9.5.0 ('Quiet Fire') 64bit
Writing library : libebml v1.3.4 + libmatroska v1.4.5

Video
ID : 1
Format : AVC
Format/Info : Advanced Video Codec
Format profile : High@L4.1
Format settings, CABAC : Yes
Format settings, ReFrames : 11 frames
Codec ID : V_MPEG4/ISO/AVC
Duration : 1 h 25 min
Bit rate : 3 730 kb/s
Width : 1 280 pixels
Height : 544 pixels
Display aspect ratio : 2.35:1
Frame rate mode : Constant
Frame rate : 23.976 (24000/1001) FPS
Color space : YUV
Chroma subsampling : 4:2:0
Bit depth : 8 bits
Scan type : Progressive
Bits/(Pixel*Frame) : 0.223
Stream size : 2.22 GiB (91%)
Writing library : x264 core 146 r2538 121396c
Encoding settings : cabac=1 / ref=11 / deblock=1:-3:-3 / analyse=0x3:0x113 / me=umh / subme=11 / psy=1 / psy_rd=1.00:0.10 / mixed_ref=1 / me_range=64 / chroma_me=1 / trellis=2 / 8x8dct=1 / cqm=0 / deadzone=21,11 / fast_pskip=0 / chroma_qp_offset=-3 / threads=12 / lookahead_threads=2 / sliced_threads=0 / nr=0 / decimate=1 / interlaced=0 / bluray_compat=0 / constrained_intra=0 / bframes=8 / b_pyramid=2 / b_adapt=2 / b_bias=0 / direct=1 / weightb=1 / open_gop=0 / weightp=2 / keyint=240 / keyint_min=23 / scenecut=40 / intra_refresh=0 / rc=crf / mbtree=0 / crf=19.5 / qcomp=0.60 / qpmin=0 / qpmax=69 / qpstep=4 / ip_ratio=1.40 / pb_ratio=1.30 / aq=1:1.00
Default : Yes
Forced : No

Audio
ID : 2
Format : AC-3
Format/Info : Audio Coding 3
Mode extension : CM (complete main)
Format settings, Endianness : Big
Codec ID : A_AC3
Duration : 1 h 24 min
Bit rate mode : Constant
Bit rate : 384 kb/s
Channel(s) : 6 channels
Channel positions : Front: L C R, Side: L R, LFE
Sampling rate : 48.0 kHz
Frame rate : 31.250 FPS (1536 spf)
Bit depth : 16 bits
Compression mode : Lossy
Stream size : 233 MiB (9%)
Title : iTunes
Language : Russian
Default : Yes
Forced : No

Menu
00:00:00.000 : en:Opening Sequence
00:08:46.000 : en:Lost Reception
00:14:54.000 : en:Debris
00:20:33.000 : en:Caught
00:26:13.000 : en:What Was That?
00:32:57.000 : en:A Bigfoot
00:40:07.000 : en:Creature In The Cabin
00:47:24.000 : en:In The Forest
00:56:26.000 : en:The Balloons
01:04:25.000 : en:Five Hours Before Sunset
01:10:46.000 : en:The Farm
01:19:07.000 : en:End Credits





Скачать Грейсфилд.The.Gracefield.Incident.(Матье.Рэтхи).[2017.Фантастика.ужасы.триллер.BDRip].[720p].[DUB].[iTunes].[R.G.GoldenShara].torrent без регистрации
Золото ЗОЛОТАЯ РАЗДАЧА! СКАЧАННОЕ НЕ ЗАСЧИТЫВАЕТСЯ! Золото
Дата: Зарегистрирован   [ Тип: внутренний ] Как тут cкачать?
MAGNET ссылка
MAGNET ссылка


Скачать .torrent

13 KB

Статус: проверено
Скачан: торрент - 114 раз, раздача полностью - 102 раз
Размер: 2,45 GB
Оценка:  4,3 (Голосов: 3)
Поблагодарили: 8
Поделиться ссылкой на эту раздачу с друзьями:
В контактеFacebookОдноклассникиTwitterLivejournalМой МирLiveinternet
 

 
Показать сообщения:    


Вы не можете начинать темы
Вы не можете отвечать на сообщения
Вы не можете редактировать свои сообщения
Вы не можете удалять свои сообщения
Вы не можете голосовать в опросах
Вы не можете прикреплять файлы к сообщениям
Вы можете скачивать файлы