Loading...
Error

Скачать Тик / The Tick (Сезон 01) (Уолли Пфистер / Wally Pfister) [2017-2018, Комедия, пародия, фантастика, WEB-DL] [1080p] [MVO] (FocusStudio) + [Orig] торрент без регистрации

Статистика раздачи
Размер:  14,15 GB   |    Скачан:  34 раза
Сидов:  1  [  0 KB/s  ]  
 
 
 
Автор Сообщение

leon030982

[] 

Тик | The Tick


Год выпуска: 2017-2018
Страна: США
Жанр: Комедия, пародия, фантастика
Продолжительность: ~ 00:30:00
Перевод: Профессиональный (многоголосый закадровый) | FocusStudio

Режиссёр: Уолли Пфистер

В ролях: Питер Серафинович, Гриффин Ньюман, Вэлори Керри, Брендан Хайнс, Джеки Эрл Хейли и др.

Описание: Тик — борец с преступностью. Он является самым честным супергероем среди своих собратьев. Он прыгает по крышам небоскребов. В нем сила природы, он бесстрашен, не признает поражений, его не возможно остановить (в большинстве случаев), он не сокрушим, полон достоинства и обаяния, и у него золотое сердце.



Релиз --

Качество: WEB-DL 1080p
Формат: MKV
Видео: 1920x1080 (16:9), 23.976 fps, MPEG-4 AVC ~6500 kbps
Аудио 1: AC3, 48,0 КГц, 6 ch, 640 kbps - Rus
Аудио 2: AC3, 48,0 КГц, 6 ch, 640 kbps - Eng
Субтитры: нет
General
Unique ID : 177247899084793027021325723455934237578 (0x8558B421EDC854598EB3B2C5B50D0B8A)
Complete name : The.Tick.2016.s01e01.WEB-DL.1080p.FocusStudio.mkv
Format : Matroska
Format version : Version 4 / Version 2
File size : 1.53 GiB
Duration : 28mn 47s
Overall bit rate mode : Variable
Overall bit rate : 7 633 Kbps
Movie name : The Tick 1x01 @ FocusStudio
Encoded date : UTC 2017-09-17 10:27:38
Writing application : mkvmerge v8.1.0 ('Psychedelic Postcard') 64bit
Writing library : libebml v1.3.1 + libmatroska v1.4.2

Video
ID : 1
Format : AVC
Format/Info : Advanced Video Codec
Format profile : High@L4.0
Format settings, CABAC : Yes
Format settings, ReFrames : 4 frames
Codec ID : V_MPEG4/ISO/AVC
Duration : 28mn 47s
Bit rate mode : Variable
Bit rate : 6 202 Kbps
Maximum bit rate : 15.0 Mbps
Width : 1 920 pixels
Height : 1 080 pixels
Display aspect ratio : 16:9
Frame rate mode : Constant
Frame rate : 23.976 fps
Color space : YUV
Chroma subsampling : 4:2:0
Bit depth : 8 bits
Scan type : Progressive
Bits/(Pixel*Frame) : 0.125
Stream size : 1.25 GiB (81%)
Default : Yes
Forced : No
Color primaries : BT.709
Transfer characteristics : BT.709
Matrix coefficients : BT.709

Audio #1
ID : 2
Format : AC-3
Format/Info : Audio Coding 3
Mode extension : CM (complete main)
Format settings, Endianness : Big
Codec ID : A_AC3
Duration : 28mn 47s
Bit rate mode : Constant
Bit rate : 640 Kbps
Channel(s) : 6 channels
Channel positions : Front: L C R, Side: L R, LFE
Sampling rate : 48.0 KHz
Bit depth : 16 bits
Compression mode : Lossy
Stream size : 132 MiB (8%)
Title : MVO FocusStudio
Language : Russian
Default : Yes
Forced : No

Audio #2
ID : 3
Format : AC-3
Format/Info : Audio Coding 3
Mode extension : CM (complete main)
Format settings, Endianness : Big
Codec ID : A_AC3
Duration : 28mn 47s
Bit rate mode : Constant
Bit rate : 640 Kbps
Channel(s) : 6 channels
Channel positions : Front: L C R, Side: L R, LFE
Sampling rate : 48.0 KHz
Bit depth : 16 bits
Compression mode : Lossy
Stream size : 132 MiB (8%)
Language : English
Default : No
Forced : No

Menu
00:00:00.000 : en:Amazon Original
00:00:05.000 : en:Opening Credits
00:00:35.000 : en:The Dawn of the Age of Superheroes
00:02:07.000 : en:Arthur watches an interview with Superian
00:05:17.000 : en:Arthur scopes out some criminals
00:10:28.000 : en:20 Years Ago
00:11:18.000 : en:15 Years Ago
00:11:24.000 : en:Arthur comes face to face with The Terror
00:15:50.000 : en:Just keep your cool
00:16:50.000 : en:Dot takes Arthur back to his apartment
00:19:32.000 : en:Arthur feels guilty
00:20:09.000 : en:The Tick confronts the criminals
00:21:28.000 : en:The Tick attempts to recruit Arthur as his sidekick
00:25:11.000 : en:Ms. Lint surveys the damage
00:25:36.000 : en:The Tick monologues as Arthur tries on his superhero suit
00:27:16.000 : en:End Credits
Когда раздача ведётся путём добавления новых серий, при каждом добавлении создётся новый торрент. Чтобы начать докачку новой серии, пользователям необходимо сделать следующее:
(1) остановить скачивание,
(2) удалить старый торрент у себя из клиента (старые серии удалять не надо),
(3) скачать новый торрент и запустить его у себя в клиенте вместо старого, при этом указать клиенту путь в старую папку, куда и должно происходить скачивание новых серий.
Ваш клиент при этом должен произвести хеширование (проверку) старой папки (если не производит сам - помогите ему сделать это), и будет докачивать только те серии, которых у вас ещё нет. Старые серии при этом не удаляются, а продолжают раздаваться!
Eсли вы уже удалили старые серии, то предотвратить повторную закачку старых серий можно, отжав галочку в соответсвующих местах при запуске нового торрента. По возможности, желательно не удалять старые серии как можно дольше, чтобы релизёр не столько продолжал раздавать старые серии, а смог сконцентрироваться на новых.



Скачать Тик.The.Tick.(Сезон.01).(Уолли.Пфистер.Wally.Pfister).[2017-2018.Комедия.пародия.фантастика.WEB-DL].[1080p].[MVO].(FocusStudio).+.[Orig].torrent без регистрации
Золото ЗОЛОТАЯ РАЗДАЧА! СКАЧАННОЕ НЕ ЗАСЧИТЫВАЕТСЯ! Золото
Дата: Зарегистрирован   [ Тип: внутренний ] Как тут cкачать?
MAGNET ссылка
MAGNET ссылка


Скачать .torrent

72 KB

Статус: проверено DHT
Скачан: торрент - 34 раз, раздача полностью - 5 раз
Размер: 14,15 GB
Оценка:  - (Голосов: 0)
Поблагодарили: 1
Поделиться ссылкой на эту раздачу с друзьями:
В контактеFacebookОдноклассникиTwitterLivejournalМой МирLiveinternet
 

 
Показать сообщения:    


Вы не можете начинать темы
Вы не можете отвечать на сообщения
Вы не можете редактировать свои сообщения
Вы не можете удалять свои сообщения
Вы не можете голосовать в опросах
Вы не можете прикреплять файлы к сообщениям
Вы можете скачивать файлы