Loading...
Error

Скачать Реллик / Rellik (Сезон 01) (Сэм Миллер) [2017, криминал, WEBRip] [720p] [MVO] (AlexFilm) торрент без регистрации

Статистика раздачи
Размер:  12,43 GB   |    Скачан:  8 раз
Сидов:  1  [  0 KB/s  ]  

 
 
 
Автор Сообщение

leon030982

[] 

Реллик / Rellik

Год выпуска: 2017
Страна: США
Жанр: Криминал
Продолжительность: ~01:00:00
Озвучание: Профессиональное (многоголосое, закадровое) (AlexFilm)

Режиссер: Сэм Миллер, Ханс Херботс

В ролях: Рис Ричи, Джоди Бальфур, Киран Бью, Peter Coe, Ричард Дормер, Александр Джиллисон, Tuncay Gunes, Сьюзэн Хьюз, Джозеф Макнаб, Лерке Винтер Андерсен и др.

Описание: История серийного убийцы, рассказанная задом наперед. Сериал начинается с момента, когда подозреваемый уже пойман, и действие разворачивается вспять, приводя к самим преступлениям и постепенно раскрывая личность настоящего убийцы. В центре расследования стоит одержимый детектив, чье лицо было обезображено кислотой. Чем дальше история заходит в прошлое, тем больше ответов появляется на главный вопрос: «Что движет нами и превращает в тех, кто мы есть?»
Релиз:

Перевод: Александр Лазарев
Монтаж и сведение звука: Михаил Суслов, Михаил Шорыгин
Роли озвучивали:Евгения Тихонова
Екатерина Муравицкая
Константин Погодаев
Кирилл Патрино
Константин Федосеев
Михаил Суслов



Качество: WEBRip 720p
Формат: MKV
Видео: 1280x720, 23.976 fps, MPEG-4 AVC ~3000 kbps avg, 0.179 bit/pixel
Аудио Rus: 48 kHz, AC3 Dolby Digital, 3/2 (L,C,R,l,r) + LFE ch, ~384.00 kbps
Аудио Eng: 48 kHz, AC3 Dolby Digital, 3/2 (L,C,R,l,r) + LFE ch, ~384.00 kbps
Субтитры: нет
Формат : Matroska
Версия формата : Version 4 / Version 2
Размер файла : 2,00 Гбайт
Продолжительность : 56 м. 43 с.
Общий поток : 5052 Кбит/сек
Название фильма : Rellik 1x01 @ AlexFilm
Дата кодирования : UTC 2017-09-17 22:43:48
Программа кодирования : mkvmerge v7.1.0 ('Good Love') 64bit built on Jul 27 2014 13:06:55
Библиотека кодирования : libebml v1.3.0 + libmatroska v1.4.1

Видео
Идентификатор : 1
Формат : AVC
Формат/Информация : Advanced Video Codec
Профиль формата : High@L4.1
Параметр CABAC формата : Да
Параметр ReFrames формата : 9 кадров
Идентификатор кодека : V_MPEG4/ISO/AVC
Продолжительность : 56 м. 43 с.
Битрейт : 4184 Кбит/сек
Ширина : 1280 пикселей
Высота : 720 пикселей
Соотношение сторон : 16:9
Режим частоты кадров : Постоянный
Частота кадров : 25,000 кадров/сек
Цветовое пространство : YUV
Субдискретизация насыщенности : 4:2:0
Битовая глубина : 8 бит
Тип развёртки : Прогрессивная
Бит/(Пиксели*Кадры) : 0.182
Размер потока : 1,66 Гбайт (83%)
Библиотека кодирования : x264 core 148 r2638 7599210
Настройки программы : cabac=1 / ref=9 / deblock=1:-3:-3 / analyse=0x3:0x133 / me=umh / subme=10 / psy=1 / psy_rd=1.00:0.00 / mixed_ref=1 / me_range=48 / chroma_me=1 / trellis=2 / 8x8dct=1 / cqm=0 / deadzone=21,11 / fast_pskip=0 / chroma_qp_offset=-2 / threads=12 / lookahead_threads=2 / sliced_threads=0 / nr=0 / decimate=0 / interlaced=0 / bluray_compat=0 / constrained_intra=0 / bframes=9 / b_pyramid=0 / b_adapt=2 / b_bias=0 / direct=3 / weightb=1 / open_gop=0 / weightp=2 / keyint=250 / keyint_min=25 / scenecut=40 / intra_refresh=0 / rc=crf / mbtree=0 / crf=17.0 / qcomp=0.60 / qpmin=10 / qpmax=51 / qpstep=4 / ip_ratio=1.40 / pb_ratio=1.30 / aq=3:0.70
Default : Да
Forced : Нет

Аудио #1
Идентификатор : 2
Формат : AC-3
Формат/Информация : Audio Coding 3
Расширение режима : CM (complete main)
Параметр Endianness формата : Big
Идентификатор кодека : A_AC3
Продолжительность : 56 м. 43 с.
Вид битрейта : Постоянный
Битрейт : 384 Кбит/сек
Каналы : 6 каналов
Расположение каналов : Front: L C R, Side: L R, LFE
Частота : 48,0 КГц
Частота кадров : 31,250 кадров/сек (1536 spf)
Метод сжатия : С потерями
Размер потока : 156 Мбайт (8%)
Заголовок : DD5.1 AlexFilm
Язык : Russian
Default : Да
Forced : Нет

Аудио #2
Идентификатор : 3
Формат : AC-3
Формат/Информация : Audio Coding 3
Расширение режима : CM (complete main)
Параметр Endianness формата : Big
Идентификатор кодека : A_AC3
Продолжительность : 56 м. 43 с.
Вид битрейта : Постоянный
Битрейт : 384 Кбит/сек
Каналы : 6 каналов
Расположение каналов : Front: L C R, Side: L R, LFE
Частота : 48,0 КГц
Частота кадров : 31,250 кадров/сек (1536 spf)
Метод сжатия : С потерями
Размер потока : 156 Мбайт (8%)
Заголовок : DD5.1 Original
Язык : English
Default : Нет
Forced : Нет
Когда раздача ведётся путём добавления новых серий, при каждом добавлении создётся новый торрент. Чтобы начать докачку новой серии, пользователям необходимо сделать следующее:
(1) остановить скачивание,
(2) удалить старый торрент у себя из клиента (старые серии удалять не надо),
(3) скачать новый торрент и запустить его у себя в клиенте вместо старого, при этом указать клиенту путь в старую папку, куда и должно происходить скачивание новых серий.
Ваш клиент при этом должен произвести хеширование (проверку) старой папки (если не производит сам - помогите ему сделать это), и будет докачивать только те серии, которых у вас ещё нет. Старые серии при этом не удаляются, а продолжают раздаваться!
Eсли вы уже удалили старые серии, то предотвратить повторную закачку старых серий можно, отжав галочку в соответсвующих местах при запуске нового торрента. По возможности, желательно не удалять старые серии как можно дольше, чтобы релизёр не столько продолжал раздавать старые серии, а смог сконцентрироваться на новых.




Скачать Реллик.Rellik.(Сезон.01).(Сэм.Миллер).[2017.криминал.WEBRip].[720p].[MVO].(AlexFilm).torrent без регистрации
Золото ЗОЛОТАЯ РАЗДАЧА! СКАЧАННОЕ НЕ ЗАСЧИТЫВАЕТСЯ! Золото
Дата: Зарегистрирован   [ Тип: внутренний ] Как тут cкачать?
MAGNET ссылка
MAGNET ссылка


Скачать .torrent

32 KB

Статус: проверено DHT
Скачан: торрент - 8 раз, раздача полностью - 0 раз
Размер: 12,43 GB
Оценка:  - (Голосов: 0)
Поблагодарили: 0
Поделиться ссылкой на эту раздачу с друзьями:
В контактеFacebookОдноклассникиTwitterLivejournalМой МирLiveinternet
 

 
Показать сообщения:    


Вы не можете начинать темы
Вы не можете отвечать на сообщения
Вы не можете редактировать свои сообщения
Вы не можете удалять свои сообщения
Вы не можете голосовать в опросах
Вы не можете прикреплять файлы к сообщениям
Вы можете скачивать файлы