Loading...
Error

Скачать Электрические сны Филипа К. Дика / Philip K. Dick's Electric Dream (Сезон 01, серии 01-05 из 10) (Майкл Диннер, Дэвид Фарр, Франческа Грегорини, Том Харпер, Питер Хортон) [2017, драма, фантастика, WEB-DL] [1080p] [MVO] (NewStudio) торрент без регистрации

Статистика раздачи
Размер:  13,19 GB   |    Скачан:  37 раз
Сидов:  1  [  0 KB/s  ]  

 
 
 
Автор Сообщение

leon030982

[] 

Электрические сны Филипа К. Дика / Philip K. Dick's Electric Dream



Год выпуска: 2017
Страна: США, Великобритания, Channel 4, Sony Pictures Television
Жанр: драма, фантастика
Продолжительность: 1х ~ 00:53:05
Перевод: Профессиональный (многоголосый) *NewStudio*

Режиссёры: Майкл Диннер, Дэвид Фарр, Франческа Грегорини, Том Харпер, Питер Хортон

В ролях: Брайан Крэнстон, Стив Бушеми, Вера Фармига, Мирей Инос, Грег Киннир, Тимоти Сполл, Бенедикт Вонг, Холлидей Грейнджер, Ричард Мэдден, Лара Пулвер

Описание: Сериал-антология. Сборник экранизаций научно-фантастических рассказов знаменитого писателя Филипа К. Дика.




Качество: WEB-DL 1080p
Формат: MKV
Видео: AVC, 1920x1080, 25fps, ~6294 Kbps
Аудио: AC-3, 48.0 kHz, 6 channels, 384 kb/s - MVO
Аудио: AC-3, 48.0 kHz, 6 channels, 384 kb/s - ENG
Субтитры: русские (форсированные)

Торент обновлен! добавлена 5-я серия
Внимание! Раздача ведётся путём добавления новых серий - по мере выхода серий, раздача будет обновляться, и при каждом добавлении создаваться новый торрент.
Чтобы начать докачку новой серии, пользователям необходимо:
1. Остановить скачивание.
2. Удалить старый торрент у себя из клиента (старые серии удалять не надо).
3. Скачать новый торрент и запустить его у себя в клиенте вместо старого, при этом указать клиенту путь в старую папку куда и должно происходить скачивание новых серий.

Ваш клиент при этом должен произвести хеширование (проверку) старой папки (если не производит сам - помогите ему сделать это), и будет докачивать только те серии которых у вас ещё нет. Старые серии при этом не удаляются, а продолжают раздаваться. Eсли вы уже удалили старые серии, то предотвратить повторную закачку старых серий можно отжав галочку в соответствующих местах при запуске нового торрента. По возможности, желательно не удалять старые серии как можно дольше, чтобы релизер не столько продолжал раздавать старые серии, сколько мог сконцентрироваться на новых.
General
Unique ID : 197234282973810500291267885593342641411 (0x9461F0F01E0DC43AB6974F10E8CE0503)
Complete name : E:\Philip.K.Dicks.Electric.Dreams.s01e01.WEBDL.1080p.NewStudio.mkv
Format : Matroska
Format version : Version 4 / Version 2
File size : 2.62 GiB
Duration : 52mn 6s
Overall bit rate : 7 205 Kbps
Encoded date : UTC 2017-09-19 07:29:19
Writing application : mkvmerge v8.2.0 ('World of Adventure') 32bit
Writing library : libebml v1.3.1 + libmatroska v1.4.2

Video
ID : 1
Format : AVC
Format/Info : Advanced Video Codec
Format profile : High@L4
Format settings, CABAC : Yes
Format settings, ReFrames : 4 frames
Codec ID : V_MPEG4/ISO/AVC
Duration : 52mn 6s
Bit rate : 6 294 Kbps
Width : 1 920 pixels
Height : 1 080 pixels
Display aspect ratio : 16:9
Frame rate mode : Constant
Frame rate : 25.000 fps
Original frame rate : 23.976 fps
Color space : YUV
Chroma subsampling : 4:2:0
Bit depth : 8 bits
Scan type : Progressive
Bits/(Pixel*Frame) : 0.121
Stream size : 2.29 GiB (87%)
Writing library : Zencoder Video Encoding System
Language : English
Default : Yes
Forced : No

Audio #1
ID : 2
Format : AC-3
Format/Info : Audio Coding 3
Mode extension : CM (complete main)
Format settings, Endianness : Big
Codec ID : A_AC3
Duration : 52mn 6s
Bit rate mode : Constant
Bit rate : 384 Kbps
Channel(s) : 6 channels
Channel positions : Front: L C R, Side: L R, LFE
Sampling rate : 48.0 KHz
Compression mode : Lossy
Stream size : 143 MiB (5%)
Title : NewStudio.TV
Language : Russian
Default : Yes
Forced : No

Audio #2
ID : 3
Format : AC-3
Format/Info : Audio Coding 3
Mode extension : CM (complete main)
Format settings, Endianness : Big
Codec ID : A_AC3
Duration : 52mn 6s
Bit rate mode : Constant
Bit rate : 384 Kbps
Channel(s) : 6 channels
Channel positions : Front: L C R, Side: L R, LFE
Sampling rate : 48.0 KHz
Compression mode : Lossy
Stream size : 143 MiB (5%)
Language : English
Default : No
Forced : No

Text
ID : 4
Format : ASS
Codec ID : S_TEXT/ASS
Codec ID/Info : Advanced Sub Station Alpha
Compression mode : Lossless
Language : Russian
Default : Yes
Forced : Yes




Скачать Электрические.сны.Филипа.К.Дика.Philip.K.Dick's.Electric.Dream.(Сезон.01.серии.01-05.из.10).(Майкл.Диннер.Дэвид.Фарр.Франческа.Грегорини.Том.Харпер.Питер.Хортон).[2017.драма.фантастика.WEB-DL].[1080p].[MVO].(NewStudio).torrent без регистрации
Золото ЗОЛОТАЯ РАЗДАЧА! СКАЧАННОЕ НЕ ЗАСЧИТЫВАЕТСЯ! Золото
Дата: Зарегистрирован   [ Тип: внутренний ] Как тут cкачать?
MAGNET ссылка
MAGNET ссылка


Скачать .torrent

34 KB

Статус: проверено DHT
Скачан: торрент - 37 раз, раздача полностью - 4 раз
Размер: 13,19 GB
Оценка:  5 (Голосов: 1)
Поблагодарили: 3
Поделиться ссылкой на эту раздачу с друзьями:
В контактеFacebookОдноклассникиTwitterLivejournalМой МирLiveinternet
 

 
Показать сообщения:    


Вы не можете начинать темы
Вы не можете отвечать на сообщения
Вы не можете редактировать свои сообщения
Вы не можете удалять свои сообщения
Вы не можете голосовать в опросах
Вы не можете прикреплять файлы к сообщениям
Вы можете скачивать файлы